<?xml version="1.0" standalone="no"?>
<!DOCTYPE svg PUBLIC "-//W3C//DTD SVG 1.1//EN" "http://www.w3.org/Graphics/SVG/1.1/DTD/svg11.dtd" >
<svg xmlns="http://www.w3.org/2000/svg" xmlns:xlink="http://www.w3.org/1999/xlink" version="1.1">
<metadata></metadata>
<defs>
<font id="gorditaregular" horiz-adv-x="893" >
<font-face units-per-em="2048" ascent="1638" descent="-410" />
<missing-glyph horiz-adv-x="572" />
<glyph horiz-adv-x="0" />
<glyph horiz-adv-x="682" />
<glyph horiz-adv-x="0" />
<glyph horiz-adv-x="0" />
<glyph unicode="&#xd;" horiz-adv-x="572" />
<glyph unicode=" "  horiz-adv-x="572" />
<glyph unicode="&#x09;" horiz-adv-x="572" />
<glyph unicode="&#xa0;" horiz-adv-x="572" />
<glyph unicode="!" horiz-adv-x="586" d="M173 102q0 50 35 85t85 35q49 0 84.5 -35t35.5 -85t-35 -85t-85 -35t-85 35t-35 85zM208 1322v282h169v-282l-10 -857h-149z" />
<glyph unicode="&#x22;" horiz-adv-x="826" d="M129 1436q0 157 94 157t94 -157q0 -22 -6 -64l-51 -422h-74l-51 422q-6 36 -6 64zM508 1436q0 157 94 157t94 -157q0 -22 -6 -64l-51 -422h-74l-51 422q-6 36 -6 64z" />
<glyph unicode="#" horiz-adv-x="1698" d="M82 444v134h321l105 482h-291l1 135h320l90 409h151l-91 -409h488l90 409h149l-90 -409h291v-135h-321l-106 -482h291v-134h-320l-98 -444h-149l97 444h-487l-97 -444h-150l97 444h-291zM552 578h489l106 482h-490z" />
<glyph unicode="$" horiz-adv-x="1287" d="M89 441l155 43q23 -124 119 -217.5t223 -115.5v597l-70 14q-168 33 -274 135q-111 108 -111 276q0 93 36.5 173.5t99 135.5t144.5 89.5t174 42.5v211h140v-214q102 -11 184 -49.5t133.5 -93t82 -113t42.5 -120.5l-152 -47q-10 40 -30.5 79.5t-54 78.5t-87 68t-119.5 41 v-565l10 -2q207 -41 311 -139q74 -69 106.5 -150t32.5 -145q0 -194 -128 -318t-331 -144v-201h-140v201q-134 14 -245.5 82t-175.5 164.5t-75 202.5zM300 1181q0 -93 58 -161t174 -92l54 -11v543q-120 -15 -203 -90.5t-83 -188.5zM724 150q125 17 207 90t82 197 q0 46 -13.5 85.5t-34 66.5t-49.5 49.5t-54.5 35.5t-55 23.5t-44.5 14.5t-29 7q-4 1 -5 1l-4 1v-571z" />
<glyph unicode="%" horiz-adv-x="1770" d="M79 1258q0 150 106 256t256 106t256 -106t106 -256q0 -149 -106 -255t-256 -106t-256 106t-106 255zM214 1258q0 -94 66.5 -160t160.5 -66t160.5 66t66.5 160t-66.5 160.5t-160.5 66.5t-160.5 -66.5t-66.5 -160.5zM280 0l1046 1604h162l-1045 -1604h-163zM967 349 q0 150 106 256t256 106t256 -106t106 -256q0 -149 -106 -255t-256 -106t-256 106t-106 255zM1103 349q0 -94 66 -160t160 -66t160.5 66t66.5 160t-66.5 160.5t-160.5 66.5t-160 -66.5t-66 -160.5z" />
<glyph unicode="&#x26;" horiz-adv-x="1466" d="M108 379q0 61 21.5 119t53.5 102.5t81 89t93 75.5t101 66l-117 135q-48 55 -80 126.5t-32 140.5q0 111 59.5 200.5t155 137.5t204.5 48q103 0 196 -48t151.5 -135t58.5 -192q0 -82 -30 -147t-76 -107.5t-122 -89.5l-149 -92l357 -411q134 154 195 309h166 q-35 -99 -105 -210t-161 -210l248 -286h-203l-156 180q-230 -194 -454 -194q-127 0 -230.5 47.5t-164.5 138t-61 207.5zM277 397q0 -118 84 -190.5t222 -72.5q164 0 342 154l-377 438q-48 -29 -77.5 -48.5t-70.5 -53.5t-64.5 -65t-41 -73.5t-17.5 -88.5zM390 1233 q0 -36 10.5 -69.5t33 -67t40.5 -56t51 -58.5t46 -51l18 -21l162 98q145 87 145 226q0 101 -74.5 171t-176.5 70t-178.5 -70t-76.5 -172z" />
<glyph unicode="'" horiz-adv-x="446" d="M129 1436q0 157 94 157t94 -157q0 -22 -6 -64l-51 -422h-74l-51 422q-6 36 -6 64z" />
<glyph unicode="(" horiz-adv-x="814" d="M110 733v52q0 317 153 577t429 421l68 -104q-247 -159 -367 -380t-120 -515v-50q0 -295 119 -514t366 -378l-66 -108q-276 162 -429 422t-153 577z" />
<glyph unicode=")" horiz-adv-x="814" d="M54 1679l68 104q277 -161 429.5 -420.5t152.5 -577.5v-52q0 -318 -152.5 -578t-429.5 -421l-66 108q247 159 366 378t119 514v50q0 294 -120 515t-367 380z" />
<glyph unicode="*" horiz-adv-x="1039" d="M101 1252l38 113l319 -104v343h122v-343l319 104l39 -113l-316 -105l194 -271l-97 -72l-201 272l-198 -271l-96 71l194 271z" />
<glyph unicode="+" horiz-adv-x="1210" d="M102 697v150h427v421h152v-421h427v-150h-427v-425h-152v425h-427z" />
<glyph unicode="," horiz-adv-x="587" d="M142 120q0 57 42.5 96t100.5 39q74 0 115.5 -56t41.5 -133q0 -139 -74.5 -243t-206.5 -122v83q66 13 114.5 76.5t49.5 136.5q-22 -13 -52 -13q-58 0 -94.5 39t-36.5 97z" />
<glyph unicode="-" d="M153 556v169h587v-169h-587z" />
<glyph unicode="." horiz-adv-x="572" d="M139 129q0 61 43 104t104 43t104 -43t43 -104t-43 -104t-104 -43t-104 43t-43 104z" />
<glyph unicode="/" horiz-adv-x="1007" d="M71 -10l699 1678h169l-700 -1678h-168z" />
<glyph unicode="0" horiz-adv-x="1572" d="M119 796q0 121 26.5 238.5t82.5 223.5t134 186.5t188.5 128t239.5 47.5q128 0 237.5 -46.5t186.5 -126t132 -184t81 -221t26 -237.5t-26.5 -238.5t-82 -223t-133.5 -185.5t-188.5 -127.5t-239.5 -47.5q-128 0 -238 46.5t-187 125.5t-132 183.5t-81 220.5t-26 237z M292 805q0 -89 17.5 -180t57 -179t95.5 -156t140.5 -110t184.5 -42t183.5 41t139.5 108t95.5 153.5t57 176.5t17.5 179t-18 180t-57.5 179.5t-95.5 157t-140 110.5t-184 42t-183.5 -41t-139.5 -108t-95.5 -154.5t-57 -177.5t-17.5 -179z" />
<glyph unicode="1" horiz-adv-x="878" d="M26 1324l466 280h163v-1604h-167v1426l-386 -230z" />
<glyph unicode="2" horiz-adv-x="1311" d="M110 0v50q0 334 371 563l243 150q67 41 110.5 74.5t86 80t63.5 102.5t21 124q0 127 -100 224t-251 97q-122 0 -207.5 -60.5t-122.5 -144.5q-29 -67 -33 -158l-168 24q0 69 22 138.5t67.5 133.5t108 114t150 79.5t186.5 29.5q109 0 207 -39t166.5 -104t108.5 -151t40 -178 q0 -161 -83 -274t-254 -220l-253 -158q-264 -165 -275 -342h879v-155h-1083z" />
<glyph unicode="3" horiz-adv-x="1333" d="M98 451l163 30q6 -64 37 -124.5t80.5 -109t123 -78.5t158.5 -30q46 0 96 11t102 37.5t92.5 65t66.5 98.5t26 133q0 139 -105 223.5t-275 84.5q-87 0 -151 -24l-79 133l526 549h-823v154h1038v-147l-497 -512q193 9 345 -97q89 -62 140 -155.5t51 -202.5 q0 -149 -75.5 -266t-201 -178.5t-276.5 -61.5q-120 0 -222.5 39.5t-172 105.5t-113 149t-54.5 173z" />
<glyph unicode="4" horiz-adv-x="1395" d="M61 385v184l786 1035h212v-1074h269v-145h-269v-385h-163v385h-835zM211 530h685v899z" />
<glyph unicode="5" horiz-adv-x="1301" d="M84 423l163 36q21 -140 129 -229.5t261 -89.5q50 0 102 12.5t103.5 41t92 69.5t65.5 104t25 139q0 95 -33 168.5t-89 117t-123.5 65.5t-142.5 22q-90 0 -183 -44t-154 -119l-157 61l190 827h800v-158h-677l-124 -533q66 61 162.5 88t172.5 27q231 0 378.5 -141 t147.5 -377q0 -126 -48.5 -228t-129 -165.5t-179 -97.5t-204.5 -34q-133 0 -251.5 52.5t-199.5 154t-97 231.5z" />
<glyph unicode="6" horiz-adv-x="1381" d="M122 696q0 191 51.5 358t148.5 293.5t248 199.5t338 73q202 0 330 -75l-63 -152q-57 35 -130.5 51t-134.5 16q-137 0 -250 -50.5t-188.5 -140t-122 -205.5t-59.5 -252q39 61 95 107.5t117 72.5t119 38.5t112 12.5q124 0 227 -41.5t170.5 -112.5t104.5 -163.5t37 -194.5 q0 -132 -49.5 -239t-131.5 -172.5t-181.5 -100.5t-206.5 -35q-138 0 -274.5 73.5t-205.5 196.5q-58 104 -79.5 198t-21.5 244zM311 521q0 -116 58.5 -204.5t148 -132.5t191.5 -44q77 0 147 25t126.5 71.5t90 120.5t33.5 166q0 154 -109 263t-288 109q-153 0 -271 -97 q-59 -49 -93 -122.5t-34 -154.5z" />
<glyph unicode="7" horiz-adv-x="1207" d="M58 1448v156h1091v-156l-739 -1448h-187l745 1448h-910z" />
<glyph unicode="8" horiz-adv-x="1372" d="M123 438q0 129 88 233.5t248 155.5q-140 40 -219 147.5t-79 219.5q0 81 32 151t85 119.5t121.5 85.5t141.5 53t145 17q74 0 147.5 -16.5t142 -51.5t121 -84.5t84 -120t31.5 -153.5q0 -118 -80.5 -222t-218.5 -145q161 -46 248.5 -152t87.5 -237q0 -86 -31.5 -160 t-86 -127.5t-126.5 -91.5t-153.5 -57t-165.5 -19t-164 17.5t-152.5 55t-127 90t-87 128t-32.5 164.5zM293 443q0 -78 36.5 -139t95.5 -96.5t126 -53.5t135 -18q66 0 133 18.5t126.5 53.5t96.5 95t37 135q0 76 -36.5 137t-95.5 98t-126.5 56.5t-134.5 19.5q-66 0 -133 -19 t-126 -55t-96.5 -97t-37.5 -135zM327 1188q0 -58 24 -108t62.5 -83.5t86.5 -57.5t95.5 -35t90.5 -11q54 0 114.5 18.5t116.5 52.5t92.5 92.5t36.5 128.5q0 67 -34 123t-88 90t-116 52.5t-122 18.5q-59 0 -120.5 -18t-115.5 -51.5t-88.5 -89t-34.5 -122.5z" />
<glyph unicode="9" horiz-adv-x="1384" d="M112 1072q0 106 31.5 196.5t86 154.5t127.5 109.5t155 67t169 21.5q137 0 270 -73t202 -197q58 -103 83 -208.5t25 -242.5q0 -198 -48 -364t-140 -289.5t-235.5 -192.5t-324.5 -69q-81 0 -190.5 24.5t-181.5 71.5l62 153q73 -45 158 -67t145 -22q133 0 241 49.5 t181 137.5t117 206t55 258q-75 -118 -206.5 -180t-248.5 -62q-123 0 -225.5 44t-168.5 117.5t-102.5 165.5t-36.5 191zM279 1079q0 -74 26.5 -141.5t75 -120.5t123.5 -84t166 -31q73 0 145 26t128 73q58 48 92.5 124.5t34.5 159.5q0 115 -58 203.5t-147.5 132.5t-191.5 44 q-77 0 -147 -25t-125.5 -72t-88.5 -122t-33 -167z" />
<glyph unicode=":" horiz-adv-x="602" d="M154 129q0 61 43 104t104 43t104 -43t43 -104t-43 -104t-104 -43t-104 43t-43 104zM154 963q0 61 43 104t104 43t104 -43t43 -104t-43 -104t-104 -43t-104 43t-43 104z" />
<glyph unicode=";" horiz-adv-x="619" d="M160 120q0 57 42.5 96t100.5 39q74 0 115.5 -56t41.5 -133q0 -139 -74.5 -243t-206.5 -122v83q66 13 114.5 76.5t49.5 136.5q-21 -13 -52 -13q-58 0 -94.5 39t-36.5 97zM160 963q0 61 43 104t104 43t104 -43t43 -104t-43 -104t-104 -43t-104 43t-43 104z" />
<glyph unicode="&#x3c;" horiz-adv-x="1312" d="M82 700v147l1061 505v-159l-885 -416l885 -419v-161z" />
<glyph unicode="=" horiz-adv-x="1267" d="M159 462v157h949v-157h-949zM159 924v159h949v-159h-949z" />
<glyph unicode="&#x3e;" horiz-adv-x="1312" d="M169 197v159l885 419l-885 416v161l1061 -505v-147z" />
<glyph unicode="?" horiz-adv-x="1113" d="M81 1172q0 128 65.5 232t174 160.5t234.5 56.5q105 0 194.5 -34.5t149.5 -92t93.5 -133.5t33.5 -158q0 -58 -15.5 -109t-52.5 -103t-71.5 -90.5t-99.5 -103.5l-14 -14q-47 -47 -68.5 -71t-49 -64.5t-38.5 -83.5t-12 -99h-157q-2 24 -2 36q0 40 6 75.5t20 67.5t26 55.5 t36 52.5t37 43t42 43t38 39q14 15 46.5 47.5t48.5 49.5t41 48.5t37 55.5t21.5 57t9.5 67q0 109 -76.5 185.5t-223.5 76.5q-151 0 -234 -98t-74 -249l-164 7q-2 32 -2 48zM400 102q0 -50 35 -85t85 -35t85 35t35 85t-35 85t-85 35t-85 -35t-35 -85z" />
<glyph unicode="@" horiz-adv-x="1771" d="M115 641q0 168 65.5 321.5t176 265t263.5 178t321 66.5q150 0 286 -50t238 -138.5t162.5 -219.5t60.5 -285q0 -137 -60 -273t-172 -202q-91 -53 -169 -53q-69 0 -122 40.5t-73 107.5q-113 -147 -287 -147q-87 0 -162 49.5t-118 128.5t-43 165q0 115 50 218.5t144.5 169.5 t211.5 66q79 0 147 -40t103 -109l24 143h149l-85 -513q-5 -15 -3 -39.5t7.5 -47.5t28 -40t57.5 -17q80 0 141.5 70.5t89.5 156.5q27 83 27 165q0 130 -51.5 240.5t-138 184.5t-201.5 115.5t-242 41.5q-144 0 -275.5 -58t-227 -155t-152 -229.5t-56.5 -275.5 q0 -199 90.5 -358t250.5 -247.5t358 -88.5q233 0 429 140l59 -94q-89 -72 -227.5 -115.5t-260.5 -43.5q-172 0 -322.5 60.5t-258.5 166.5t-170.5 256t-62.5 323zM629 608q0 -95 58 -161t150 -66q79 0 143 50t97 123.5t33 150.5q0 91 -56 153.5t-146 62.5 q-120 0 -199.5 -94.5t-79.5 -218.5z" />
<glyph unicode="A" horiz-adv-x="1588" d="M7 0l691 1604h191l692 -1604h-178l-175 410h-873l-176 -410h-172zM418 563h745l-373 867z" />
<glyph unicode="B" horiz-adv-x="1501" d="M223 0v1604h576q148 0 263.5 -45.5t184 -138t68.5 -219.5q0 -28 -3.5 -57t-18 -74.5t-39 -85t-72 -81t-111.5 -69.5q84 -22 149 -69.5t99.5 -105.5t51 -113.5t16.5 -105.5q0 -112 -45.5 -198t-125 -138t-180 -78t-216.5 -26h-597zM390 154h434q55 0 107.5 9t104.5 30.5 t91 54.5t63 85.5t24 118.5t-26.5 117.5t-68 83t-98.5 52t-112.5 28.5t-115.5 8h-403v-587zM390 891h382q188 0 280 81.5t92 208.5q0 57 -20 103t-53.5 76.5t-80 51t-97.5 29.5t-108 9h-395v-559z" />
<glyph unicode="C" horiz-adv-x="1719" d="M111 797q0 178 64.5 333.5t174.5 262t257.5 167.5t310.5 61q126 0 237 -34t189.5 -88t140 -124.5t97 -141t52.5 -140.5l-161 -57q-10 39 -29.5 85t-64.5 109t-103.5 112t-153.5 84t-208 35q-127 0 -242 -48t-200 -133t-135.5 -208t-50.5 -265q0 -188 81 -340t225.5 -238 t323.5 -86q110 0 202 33t149.5 78.5t104 110.5t68 111t38.5 97l162 -58q-19 -65 -53 -131.5t-95.5 -140.5t-140 -130t-193.5 -93t-248 -37q-165 0 -312 60t-254.5 165.5t-170 258.5t-62.5 330z" />
<glyph unicode="D" horiz-adv-x="1657" d="M223 0v1604h477q184 0 342.5 -61.5t269 -168t173 -254t62.5 -315.5q0 -176 -66.5 -327t-180.5 -255.5t-269.5 -163.5t-330.5 -59h-477zM391 158h303q199 0 354 82.5t239.5 228.5t84.5 332q0 137 -48 256t-135 205t-215.5 135t-281.5 49h-301v-1288z" />
<glyph unicode="E" horiz-adv-x="1359" d="M223 0v1604h1003v-156h-835v-555h764v-155h-764v-582h843v-156h-1011z" />
<glyph unicode="F" horiz-adv-x="1300" d="M223 0v1604h993v-158h-825v-576h755v-156h-755v-714h-168z" />
<glyph unicode="G" horiz-adv-x="1756" d="M110 797q0 228 105 416.5t290.5 297.5t412.5 109q142 0 263.5 -38.5t207.5 -106.5t145 -151t92 -181l-161 -57q-14 44 -38.5 89.5t-71 99t-105.5 94t-147.5 68t-190.5 27.5q-179 0 -324.5 -91.5t-224.5 -241.5t-79 -325q0 -136 44 -257t124 -212t200.5 -143.5 t263.5 -52.5q107 0 205.5 32.5t176.5 92.5t127 151.5t56 202.5h-670v156h849v-61q0 -152 -52 -285t-146.5 -232t-236.5 -156.5t-313 -57.5q-179 0 -330 62.5t-254 171.5t-160.5 258.5t-57.5 320.5z" />
<glyph unicode="H" horiz-adv-x="1696" d="M223 0v1604h168v-710h914v710h168v-1604h-168v734h-914v-734h-168z" />
<glyph unicode="I" horiz-adv-x="614" d="M223 0v1604h168v-1604h-168z" />
<glyph unicode="J" horiz-adv-x="1275" d="M82 496v158h167v-152q0 -91 28 -162t75.5 -113t104.5 -63.5t120 -21.5q140 0 232.5 101.5t92.5 250.5v1110h168v-1104q0 -224 -137 -370t-350 -146q-229 0 -365 139t-136 373z" />
<glyph unicode="K" horiz-adv-x="1387" d="M223 0v1604h168v-709h11l719 709h234l-786 -768l824 -836h-238l-752 772h-12v-772h-168z" />
<glyph unicode="L" horiz-adv-x="1194" d="M223 0v1604h168v-1446h761v-158h-929z" />
<glyph unicode="M" horiz-adv-x="2120" d="M223 0v1604h238l600 -1375l594 1375h242v-1604h-167v1375h-1l-597 -1375h-150l-592 1364h-1v-1364h-166z" />
<glyph unicode="N" horiz-adv-x="1753" d="M223 0v1604h194l947 -1348v1348h166v-1604h-184l-957 1365v-1365h-166z" />
<glyph unicode="O" horiz-adv-x="1833" d="M110 797q0 227 104.5 415.5t290.5 298t414 109.5q169 0 319 -63.5t256 -172t167.5 -259t61.5 -319.5q0 -228 -104.5 -416t-290.5 -297.5t-414 -109.5q-169 0 -319 63.5t-256 172t-167.5 259t-61.5 319.5zM285 806q0 -134 47 -256t129.5 -212t201.5 -143.5t256 -53.5 q180 0 325 89t224.5 238.5t79.5 328.5q0 134 -47 256t-129.5 212.5t-201.5 144t-256 53.5q-180 0 -325 -89.5t-224.5 -239t-79.5 -328.5z" />
<glyph unicode="P" horiz-adv-x="1395" d="M223 0v1604h536q114 0 208.5 -26t159 -71.5t109.5 -107t65.5 -131t20.5 -145.5q0 -104 -38 -193.5t-110.5 -157t-186 -106.5t-255.5 -39h-341v-627h-168zM391 783h347q106 0 188 29t129.5 77.5t71.5 106.5t24 121q0 50 -11.5 95t-41 88.5t-74 75t-116 51t-162.5 19.5 h-355v-663z" />
<glyph unicode="Q" horiz-adv-x="1837" d="M110 797q0 228 104.5 416t290 297.5t413.5 109.5q170 0 319.5 -63.5t255.5 -172t167.5 -259t61.5 -319.5q0 -155 -50.5 -294.5t-144.5 -249.5l203 -174l-110 -127l-209 189q-215 -167 -497 -167q-170 0 -319.5 63.5t-255.5 172t-167.5 259t-61.5 319.5zM285 806 q0 -180 79.5 -331.5t225.5 -242.5t328 -91q209 0 370 118l-306 268l111 125l311 -282q144 182 144 427q0 134 -47 256t-129.5 212.5t-201.5 144t-256 53.5q-180 0 -325 -89.5t-224.5 -239t-79.5 -328.5z" />
<glyph unicode="R" horiz-adv-x="1475" d="M223 0v1604h556q142 0 252 -37.5t176.5 -103t100.5 -148.5t34 -179q0 -99 -35 -181.5t-96 -138.5t-139.5 -91.5t-169.5 -47.5l494 -677h-204l-474 649h-327v-649h-168zM391 802h373q105 0 185.5 28t127.5 75.5t70.5 104.5t23.5 120q0 50 -12.5 94t-42 85.5t-74.5 71 t-115.5 47.5t-159.5 18h-376v-644z" />
<glyph unicode="S" horiz-adv-x="1313" d="M100 438l158 44q27 -142 144 -241t264 -99q70 0 133 18t114.5 53t82 92.5t30.5 129.5q0 54 -19 99.5t-47.5 75.5t-68.5 53.5t-76 35.5t-75 20l-213 42q-65 13 -140 47t-132 89q-112 109 -112 277q0 133 72 236.5t187 157t250 53.5q100 0 184 -23.5t142 -62t101.5 -89.5 t67.5 -103t34 -106l-153 -48q-9 37 -26 73t-48.5 73.5t-72 66t-101 46.5t-132.5 18q-87 0 -163 -34.5t-124.5 -100.5t-48.5 -149q0 -93 58.5 -161.5t174.5 -91.5l204 -40q204 -40 311 -140q74 -69 106 -149.5t32 -145.5q0 -141 -70.5 -249t-191 -164.5t-270.5 -56.5 q-114 0 -217 39t-175.5 103t-118.5 145.5t-55 166.5z" />
<glyph unicode="T" horiz-adv-x="1328" d="M44 1446v158h1240v-158h-535v-1446h-169v1446h-536z" />
<glyph unicode="U" horiz-adv-x="1609" d="M202 616v988h168v-980q0 -127 33.5 -222t94.5 -150.5t139 -82.5t174 -27q206 0 317 124t111 349v989h168v-977q0 -304 -158.5 -473.5t-444.5 -169.5q-287 0 -444.5 171.5t-157.5 460.5z" />
<glyph unicode="V" horiz-adv-x="1573" d="M48 1604h185l554 -1414l557 1414h181l-645 -1604h-187z" />
<glyph unicode="W" horiz-adv-x="2349" d="M57 1604h177l420 -1361h4l423 1361h191l426 -1368h3l422 1368h170l-504 -1604h-187l-428 1377l-430 -1377h-185z" />
<glyph unicode="X" horiz-adv-x="1464" d="M16 0l615 821l-588 783h197l495 -661l490 661h196l-587 -781l614 -823h-196l-521 701l-518 -701h-197z" />
<glyph unicode="Y" horiz-adv-x="1518" d="M53 1604h202l507 -767l511 767h193l-622 -927v-677h-170v676z" />
<glyph unicode="Z" horiz-adv-x="1318" d="M74 0v155l956 1295h-923v154h1120v-155l-958 -1294h962v-155h-1157z" />
<glyph unicode="[" horiz-adv-x="848" d="M211 -248v2013h561v-138h-405v-1736h405v-139h-561z" />
<glyph unicode="\" horiz-adv-x="1007" d="M68 1668h169l699 -1678h-167z" />
<glyph unicode="]" horiz-adv-x="848" d="M76 -109h405v1736h-405v138h561v-2013h-561v139z" />
<glyph unicode="^" horiz-adv-x="1206" d="M111 923l423 681h137l424 -681h-187l-305 520l-306 -520h-186z" />
<glyph unicode="_" horiz-adv-x="1093" d="M0 -179h1093v-134h-1093v134z" />
<glyph unicode="`" horiz-adv-x="489" d="M39 1632h194l222 -352h-153z" />
<glyph unicode="a" horiz-adv-x="1164" d="M104 303v12q0 68 26.5 123.5t69.5 90.5t100.5 58.5t116.5 33.5t120 10h303v74q0 131 -71 198t-207 67q-66 0 -120 -19.5t-87.5 -53t-53.5 -71t-27 -79.5l-153 33q3 31 19 70.5t51.5 86.5t84 85.5t124.5 64.5t166 26q299 0 398 -226q33 -75 33 -181v-308q0 -275 18 -398 h-160q-14 73 -14 192h-1q-137 -211 -369 -211q-164 0 -265.5 91t-101.5 231zM265 316q0 -90 66.5 -142t167.5 -52q147 0 244 95t97 244v38h-305q-49 0 -93 -8.5t-85.5 -28t-66.5 -57t-25 -89.5z" />
<glyph unicode="b" horiz-adv-x="1378" d="M181 0v1668h159v-809q166 254 421 254q114 0 212 -48t163.5 -127.5t102.5 -181t37 -208.5q0 -149 -62.5 -276.5t-182 -207.5t-270.5 -80q-269 0 -424 246v-230h-156zM338 550q0 -173 111 -299.5t281 -126.5q175 0 279 120.5t104 299.5q0 115 -44.5 211t-133 155.5 t-205.5 59.5q-110 0 -201 -59t-141 -155t-50 -206z" />
<glyph unicode="c" horiz-adv-x="1259" d="M101 543q0 162 76.5 293.5t205 204t282.5 72.5q185 0 326 -102.5t176 -246.5l-147 -48q-8 28 -25 59.5t-48 67t-70 63.5t-96 46.5t-122 18.5q-171 0 -283 -122t-112 -297q0 -115 46.5 -211.5t138 -157t211.5 -60.5q69 0 127.5 20t96 48t68.5 67t46 68t27 60l148 -50 q-19 -64 -61.5 -125t-105.5 -113.5t-154 -84.5t-194 -32q-157 0 -284 71.5t-200 200.5t-73 290z" />
<glyph unicode="d" horiz-adv-x="1378" d="M102 548q0 107 37 208.5t102.5 181t163 127.5t209.5 48q76 0 142 -20t117.5 -57t90 -78t74.5 -94v804h159v-1668h-157l1 234q-152 -250 -427 -250q-114 0 -211.5 46t-162.5 124t-101.5 180t-36.5 214zM265 544q0 -114 44.5 -208.5t133 -153t204.5 -58.5q112 0 203 60 t140.5 157t49.5 209q0 108 -50 204t-141.5 156t-201.5 60q-175 0 -278.5 -121.5t-103.5 -304.5z" />
<glyph unicode="e" horiz-adv-x="1244" d="M101 548q0 148 68 277.5t191.5 208.5t272.5 79q164 0 282.5 -74.5t176 -200t57.5 -287.5q0 -18 -2 -54h-885q9 -160 120.5 -267t271.5 -107q123 0 211.5 60t126.5 174l142 -45q-47 -155 -179 -243t-299 -88q-156 0 -284 76t-199.5 206t-71.5 285zM264 633h723 q-16 153 -109 246t-245 93q-139 0 -244 -99.5t-125 -239.5z" />
<glyph unicode="f" horiz-adv-x="742" d="M51 954v139h210v203q0 184 92 280.5t243 96.5q63 0 120 -20v-136q-42 15 -114 15q-33 0 -62.5 -10.5t-58 -34.5t-45 -72t-16.5 -114v-208h286v-139h-286v-954h-159v954h-210z" />
<glyph unicode="g" horiz-adv-x="1379" d="M103 552q0 144 62.5 271.5t181.5 208.5t268 81q77 0 143.5 -20t118 -56.5t90 -78t74.5 -94.5v229h157v-1067q0 -280 -154.5 -426.5t-414.5 -146.5q-204 0 -347.5 107.5t-174.5 267.5l147 49q8 -36 24 -72.5t47 -75.5t71 -68.5t100 -48.5t131 -19q87 0 159 23.5t130 72.5 t90.5 132.5t32.5 194.5v228q-149 -249 -424 -249q-152 0 -270.5 77.5t-180 203.5t-61.5 276zM266 549q0 -114 44.5 -207t133 -149.5t204.5 -56.5q169 0 281 123.5t112 295.5q0 108 -50.5 203t-141.5 154t-201 59q-176 0 -279 -119.5t-103 -302.5z" />
<glyph unicode="h" horiz-adv-x="1295" d="M181 0v1668h159v-771q131 217 374 217q197 0 305.5 -120.5t108.5 -317.5v-676h-159v636q0 151 -77.5 241.5t-225.5 90.5q-141 0 -233.5 -99t-92.5 -246v-623h-159z" />
<glyph unicode="i" horiz-adv-x="522" d="M141 1485q0 50 35 85t85 35t85 -35t35 -85t-35 -85t-85 -35t-85 35t-35 85zM181 0v1093h160v-1093h-160z" />
<glyph unicode="j" horiz-adv-x="538" d="M-56 -398q36 -7 79 -7q84 0 129 45.5t45 129.5v1323h160v-1327q0 -152 -79 -232t-232 -80q-38 0 -102 16v132zM157 1485q0 50 35 85t85 35t85 -35t35 -85t-35 -85t-85 -35q-49 0 -84.5 35.5t-35.5 84.5z" />
<glyph unicode="k" horiz-adv-x="1116" d="M181 0v1669h159v-1020l520 444h227l-576 -491l603 -602h-224l-543 547h-7v-547h-159z" />
<glyph unicode="l" horiz-adv-x="522" d="M181 0v1669h160v-1669h-160z" />
<glyph unicode="m" horiz-adv-x="1996" d="M181 0v1093h156v-189q71 105 154 157.5t200 52.5q119 0 209.5 -56.5t140.5 -163.5q139 219 384 219q193 0 298.5 -120.5t105.5 -316.5v-676h-159v636q0 147 -70.5 239t-212.5 92q-140 0 -222 -97.5t-82 -240.5v-629h-157v642q0 144 -71 235t-211 91q-138 0 -221 -102 t-83 -243v-623h-159z" />
<glyph unicode="n" horiz-adv-x="1295" d="M181 0v1093h156v-200q130 221 377 221q197 0 305.5 -120.5t108.5 -317.5v-676h-159v636q0 151 -77.5 241.5t-225.5 90.5q-141 0 -233.5 -99t-92.5 -246v-623h-159z" />
<glyph unicode="o" horiz-adv-x="1332" d="M101 543q0 242 162.5 406t403.5 164q156 0 285.5 -74.5t204 -203.5t74.5 -284q0 -159 -75 -290t-205 -205.5t-288 -74.5q-155 0 -284.5 75t-203.5 204t-74 283zM264 551q0 -115 50.5 -212.5t143.5 -156.5t209 -59q173 0 287 123t114 297q0 176 -115 302.5t-290 126.5 q-174 0 -286.5 -123t-112.5 -298z" />
<glyph unicode="p" horiz-adv-x="1378" d="M181 -539v1632h156v-237q168 257 424 257q114 0 212 -48t163.5 -127.5t102.5 -181t37 -208.5q0 -149 -62.5 -276.5t-182 -207.5t-270.5 -80q-268 0 -421 241v-764h-159zM338 550q0 -173 111 -299.5t281 -126.5q175 0 279 120.5t104 299.5q0 115 -44.5 211t-133 155.5 t-205.5 59.5q-110 0 -201 -59t-141 -155t-50 -206z" />
<glyph unicode="q" horiz-adv-x="1378" d="M102 548q0 107 37 208.5t102.5 181t163 127.5t209.5 48q78 0 144.5 -20.5t118 -58.5t89.5 -79t74 -95v233h157v-1632h-159v769q-149 -246 -424 -246q-114 0 -211.5 46t-162.5 124t-101.5 180t-36.5 214zM265 544q0 -114 44.5 -208.5t133 -153t204.5 -58.5q112 0 203 60 t140.5 157t49.5 209q0 108 -50 204t-141.5 156t-201.5 60q-175 0 -278.5 -121.5t-103.5 -304.5z" />
<glyph unicode="r" horiz-adv-x="778" d="M181 0v1093h156v-216q40 81 101 135t123.5 76.5t128.5 22.5q37 0 54 -4v-169q-29 4 -62 4q-75 0 -134.5 -24t-98 -63.5t-63.5 -93t-35.5 -110t-10.5 -117.5v-534h-159z" />
<glyph unicode="s" horiz-adv-x="1006" d="M98 307l146 38q7 -40 25.5 -77.5t49.5 -71t81 -54t113 -20.5q93 0 160 48.5t67 131.5q0 65 -53.5 106t-125.5 57l-167 37q-272 60 -272 285q0 85 38 151.5t96.5 102.5t119 54t116.5 18q80 0 146.5 -20.5t108.5 -52t73 -72.5t45.5 -77t20.5 -71l-145 -41q-8 32 -22.5 61.5 t-42 61.5t-75 51.5t-108.5 19.5q-89 0 -150 -51t-61 -124q0 -64 42.5 -97.5t115.5 -50.5l177 -40q56 -13 105 -36.5t90.5 -59t65.5 -88t24 -115.5q0 -146 -113 -237.5t-275 -91.5q-85 0 -155.5 22.5t-115.5 57t-77.5 79.5t-47.5 85.5t-20 80.5z" />
<glyph unicode="t" horiz-adv-x="779" d="M51 952v141h202v316h159v-316h277v-141h-277v-665q0 -154 177 -154q59 0 99 8v-132q-52 -18 -125 -18q-86 0 -148 22.5t-96.5 64t-50 92t-15.5 113.5v669h-202z" />
<glyph unicode="u" horiz-adv-x="1294" d="M167 417v676h159v-636q0 -151 77.5 -241.5t225.5 -90.5q141 0 233.5 99t92.5 246v623h158v-1093h-156v200q-130 -221 -376 -221q-196 0 -305 121t-109 317z" />
<glyph unicode="v" horiz-adv-x="1196" d="M48 1093h176l375 -916l379 916h171l-467 -1093h-169z" />
<glyph unicode="w" horiz-adv-x="1774" d="M52 1093h169l287 -907h1l297 907h161l299 -908h1l290 908h165l-368 -1093h-178l-290 889h-1l-292 -889h-175z" />
<glyph unicode="x" horiz-adv-x="1129" d="M38 0l432 556l-416 537h188l324 -424l322 424h186l-415 -535l432 -558h-190l-338 445l-339 -445h-186z" />
<glyph unicode="y" horiz-adv-x="1216" d="M44 1093h183l401 -845l379 845h172l-748 -1632h-173l283 613z" />
<glyph unicode="z" horiz-adv-x="1053" d="M85 0v137l683 819h-667v137h858v-135l-683 -821h685v-137h-876z" />
<glyph unicode="{" horiz-adv-x="865" d="M45 689v141q60 1 108.5 14t91 42.5t60.5 85.5t7 134l-33 230q-13 73 -8 131.5t17.5 103.5t41.5 78t64 55.5t85 36t105 19.5t124 6h80v-139h-67q-149 0 -215.5 -35.5t-74 -109.5t10.5 -189l28 -187q6 -23 4 -55t-6 -66.5t-21 -71t-41 -67t-66.5 -54t-97.5 -33.5v-2 q55 -10 97.5 -31.5t67.5 -50.5t41.5 -61.5t22 -67.5t5.5 -65t-4 -58l-30 -198q-18 -115 -11 -189t74 -109.5t216 -35.5h67v-139h-80q-60 0 -109.5 4.5t-95 14.5t-80 26.5t-64.5 41t-47.5 57t-30 75t-11 95t8.5 117.5l33 229q9 64 -2 113t-35.5 79t-63 49t-78.5 27t-88 9z " />
<glyph unicode="|" horiz-adv-x="578" d="M211 -238v2063h156v-2063h-156z" />
<glyph unicode="}" horiz-adv-x="865" d="M77 -109h68q148 0 214.5 35.5t74 109.5t-10.5 189l-29 198q-6 25 -4 57.5t6 66t21.5 67t42 61.5t67 50t97.5 32v2q-55 10 -97.5 33.5t-66.5 54t-41.5 67t-21.5 71t-6 66.5t4 55l28 187q18 115 10.5 189t-74 109.5t-214.5 35.5h-68v139h81q69 0 123.5 -6t105 -19.5 t85.5 -36t63.5 -55.5t41 -78t17.5 -103.5t-8 -131.5l-33 -230q-11 -78 7 -134t60.5 -85.5t91 -42.5t108.5 -14v-141q-48 -1 -88 -9t-78.5 -27t-63 -49t-35.5 -79t-2 -113l33 -229q18 -127 -1.5 -212.5t-79 -132.5t-142.5 -66.5t-205 -19.5h-81v139z" />
<glyph unicode="~" horiz-adv-x="1311" d="M162 657q47 71 117.5 113.5t152.5 42.5q67 0 137 -28.5t118 -62.5t104.5 -62.5t100.5 -28.5q48 0 84.5 24t77.5 70l98 -94q-44 -74 -115 -117.5t-155 -43.5q-60 0 -127.5 28.5t-117 62.5t-109 62.5t-106.5 28.5q-49 0 -84 -22t-76 -67z" />
<glyph unicode="&#xa2;" horiz-adv-x="1276" d="M111 543q0 222 136 378t342 186v197h133v-193q170 -14 296.5 -113.5t158.5 -233.5l-147 -48q-10 33 -32 69.5t-58.5 76t-94.5 69t-126 37.5v-842q58 7 108 29t82.5 49.5t59.5 64t40.5 62.5t24.5 55l148 -50q-17 -59 -55.5 -116.5t-95 -108t-137 -85.5t-172.5 -43v-192 h-133v195q-210 26 -344 180.5t-134 376.5zM274 552q0 -157 85.5 -276t232.5 -146v834q-142 -28 -230 -143t-88 -269z" />
<glyph unicode="&#xa3;" horiz-adv-x="1327" d="M124 0v156q112 56 185.5 169t73.5 236q0 67 -20 147h-233v154h182q-24 66 -37 105t-25 99t-12 112q0 125 64 227t171 158.5t233 56.5q208 0 327 -108t126 -280l-161 -28q-2 49 -16.5 91.5t-45 82.5t-88.5 63.5t-137 23.5q-127 0 -213.5 -84t-86.5 -209q0 -18 2 -37.5 t4.5 -35t9 -40.5t9.5 -36.5t13 -41.5l12.5 -37.5t14.5 -42t14 -39.5h449v-154h-401q19 -73 19 -138q0 -255 -203 -414h468q74 0 127 22.5t79 60.5t37 75.5t11 78.5l159 -16q0 -98 -43.5 -182t-134.5 -139.5t-213 -55.5h-720z" />
<glyph unicode="&#xa5;" horiz-adv-x="1510" d="M78 1604h203l476 -777l481 777h194l-546 -851h449v-136h-496v-203h496v-136h-496v-278h-170v278h-495v136h495v203h-495v136h447z" />
<glyph unicode="&#xa8;" horiz-adv-x="684" d="M23 1400q0 50 37 86.5t84 36.5t84 -36.5t37 -86.5t-37 -86.5t-84 -36.5t-84 36.5t-37 86.5zM413 1400q0 50 37 86.5t84 36.5t84 -36.5t37 -86.5t-37 -86.5t-84 -36.5t-84 36.5t-37 86.5z" />
<glyph unicode="&#xa9;" horiz-adv-x="1847" d="M113 801q0 167 64 318.5t173 261.5t259 175t315 65t315 -65t258.5 -175t172.5 -261.5t64 -318.5q0 -166 -64 -317.5t-172.5 -261t-258.5 -174t-315 -64.5t-315 64.5t-259 174t-173 261t-64 317.5zM219 801q0 -147 55 -280t148.5 -229t224.5 -153t277 -57q145 0 276 57 t225 153t149 229t55 280q0 196 -93 362t-255.5 263t-356.5 97t-356.5 -97t-255.5 -263t-93 -362zM427 799q0 146 68.5 263.5t184.5 182.5t254 65q164 0 291 -90.5t159 -222.5l-142 -46q-10 34 -32.5 69t-59.5 71t-95 58.5t-126 22.5q-149 0 -246.5 -106t-97.5 -259 q0 -155 94 -263.5t250 -108.5q72 0 130.5 23.5t95 62t57 71.5t34.5 70l144 -48q-38 -127 -162.5 -222.5t-299.5 -95.5q-215 0 -358 142.5t-143 360.5z" />
<glyph unicode="&#xab;" horiz-adv-x="1161" d="M97 617l369 370l98 -97l-260 -269l260 -271l-98 -96zM548 617l370 370l97 -97l-260 -269l260 -271l-97 -96z" />
<glyph unicode="&#xad;" d="M153 556v169h587v-169h-587z" />
<glyph unicode="&#xae;" horiz-adv-x="1260" d="M109 1091q0 108 41 205.5t111 168t166 112.5t202 42q142 0 262 -71t190 -192.5t70 -264.5q0 -144 -70 -265.5t-190 -192.5t-262 -71q-141 0 -261 71t-189.5 192.5t-69.5 265.5zM193 1091q0 -122 58.5 -226t159 -164.5t218.5 -60.5t219 60.5t160 164.5t59 226 q0 186 -128.5 318t-309.5 132q-180 0 -308 -132t-128 -318zM421 773v636h215q111 0 170 -55t59 -139q0 -73 -42 -120t-107 -64l176 -258h-122l-165 241h-82v-241h-102zM523 1111l108 1q68 1 99.5 30.5t31.5 70.5t-30 69t-100 28h-109v-199z" />
<glyph unicode="&#xb4;" horiz-adv-x="491" d="M43 1280l222 352h194l-263 -352h-153z" />
<glyph unicode="&#xbb;" horiz-adv-x="1149" d="M146 350l260 265l-260 275l98 97l369 -370l-369 -363zM585 350l261 265l-261 275l98 97l369 -370l-369 -363z" />
<glyph unicode="&#x106;" horiz-adv-x="1720" d="M111 797q0 178 65 333.5t174.5 262t257.5 167.5t311 61q126 0 237 -34t189.5 -88t140 -124.5t97 -141t52.5 -140.5l-161 -57q-10 39 -29.5 85t-64.5 109t-103.5 112t-153.5 84t-208 35q-127 0 -242 -48t-200 -133t-135.5 -208t-50.5 -265q0 -188 81 -340t225.5 -238 t323.5 -86q110 0 202 33t149.5 78.5t104 110.5t68 111t38.5 97l162 -58q-19 -65 -53 -131.5t-95.5 -140.5t-140 -130t-193.5 -93t-248 -37q-165 0 -312 60t-254.5 165.5t-170.5 258.5t-63 330zM838 1751l222 352h194l-263 -352h-153z" />
<glyph unicode="&#x107;" horiz-adv-x="1269" d="M101 543q0 162 78.5 293.5t209.5 204t286 72.5q185 0 326 -102.5t176 -246.5l-147 -48q-8 28 -25 59.5t-48 67t-70 63.5t-96 46.5t-122 18.5q-114 0 -206 -57t-142 -152.5t-50 -209.5q0 -115 46.5 -211.5t139 -157t213.5 -60.5q69 0 127.5 20t96 48t68.5 67t46 68t27 60 l148 -50q-19 -64 -61.5 -125t-105.5 -113.5t-154 -84.5t-194 -32q-119 0 -223.5 42t-180 116t-119.5 179t-44 225zM583 1280l224 352h194l-263 -352h-155z" />
<glyph unicode="&#x10c;" horiz-adv-x="1720" d="M111 797q0 178 65 333.5t174.5 262t257.5 167.5t311 61q126 0 237 -34t189.5 -88t140 -124.5t97 -141t52.5 -140.5l-161 -57q-10 39 -29.5 85t-64.5 109t-103.5 112t-153.5 84t-208 35q-127 0 -242 -48t-200 -133t-135.5 -208t-50.5 -265q0 -188 81 -340t225.5 -238 t323.5 -86q110 0 202 33t149.5 78.5t104 110.5t68 111t38.5 97l162 -58q-19 -65 -53 -131.5t-95.5 -140.5t-140 -130t-193.5 -93t-248 -37q-165 0 -312 60t-254.5 165.5t-170.5 258.5t-63 330zM561 2107h171l183 -242h5l186 242h170l-282 -353h-159z" />
<glyph unicode="&#x10d;" horiz-adv-x="1267" d="M101 543q0 162 78 293.5t208.5 204t285.5 72.5q185 0 326 -102.5t176 -246.5l-147 -48q-8 28 -25 59.5t-48 67t-70 63.5t-96 46.5t-122 18.5q-114 0 -206 -57t-142 -152.5t-50 -209.5q0 -115 46.5 -211.5t139 -157t213.5 -60.5q69 0 127.5 20t96 48t68.5 67t46 68t27 60 l148 -50q-19 -64 -61.5 -125t-105.5 -113.5t-154 -84.5t-194 -32q-119 0 -223.5 42t-179.5 116t-118.5 178.5t-43.5 225.5zM320 1633h171l184 -242h5l186 242h170l-282 -353h-159z" />
<glyph unicode="&#x110;" horiz-adv-x="1680" d="M30 736v157h217v711h476q185 0 344 -61.5t269 -168t172 -254t62 -315.5q0 -234 -113.5 -419t-306 -285.5t-427.5 -100.5h-476v736h-217zM415 158h303q199 0 354 82.5t239.5 228.5t84.5 332q0 184 -82.5 330t-238 230.5t-359.5 84.5h-301v-553h392v-157h-392v-578z" />
<glyph unicode="&#x111;" horiz-adv-x="1377" d="M102 548q0 144 62 272t181.5 210.5t268.5 82.5q145 0 246 -68t177 -181v434h-398v142h398v228h159v-228h138v-142h-138v-1298h-156v234q-150 -250 -427 -250q-152 0 -270 79t-179.5 206.5t-61.5 278.5zM265 544q0 -114 44.5 -208.5t133 -153t204.5 -58.5q112 0 203 60 t140.5 157t49.5 209q0 108 -50 204t-141.5 156t-201.5 60q-117 0 -205 -57.5t-132.5 -153t-44.5 -215.5z" />
<glyph unicode="&#x160;" horiz-adv-x="1313" d="M100 438l158 44q27 -142 144 -241t264 -99q70 0 133 18t114.5 53t82 92.5t30.5 129.5q0 54 -19 99.5t-47.5 75.5t-68.5 53.5t-76 35.5t-75 20l-213 42q-65 13 -140 47t-132 89q-112 109 -112 277q0 133 72 236.5t187 157t250 53.5q100 0 184 -23.5t142 -62t101.5 -89.5 t67.5 -103t34 -106l-153 -48q-9 37 -26 73t-48.5 73.5t-72 66t-101 46.5t-132.5 18q-87 0 -163 -34.5t-124.5 -100.5t-48.5 -149q0 -93 58.5 -161.5t174.5 -91.5l204 -40q201 -39 310 -140q74 -69 106.5 -150t32.5 -145q0 -141 -70.5 -249t-191 -164.5t-270.5 -56.5 q-114 0 -217 39t-175.5 103t-118.5 145.5t-55 166.5zM292 2107h170l183 -242h5l186 242h170l-282 -353h-159z" />
<glyph unicode="&#x161;" horiz-adv-x="1007" d="M98 307l147 38q7 -40 25.5 -77.5t49.5 -71t81 -54t113 -20.5q93 0 160 48.5t67 131.5q0 65 -53.5 106t-125.5 57l-167 37q-56 12 -100.5 31.5t-85.5 51.5t-64 83.5t-23 118.5q0 69 25.5 126t65.5 93t90.5 61t98 35.5t91.5 10.5q80 0 146.5 -20.5t108.5 -52t73 -72.5 t45.5 -77t20.5 -71l-145 -41q-8 32 -22.5 61.5t-42 61.5t-75 51.5t-108.5 19.5q-89 0 -150 -51t-61 -124q0 -64 42.5 -97.5t115.5 -50.5l177 -40q56 -13 105 -36.5t90.5 -59t65.5 -88t24 -115.5q0 -146 -113 -237.5t-275 -91.5q-85 0 -155.5 22.5t-115.5 57t-77.5 79 t-48 85.5t-20.5 81zM145 1633h171l184 -242h5l186 242h170l-282 -353h-159z" />
<glyph unicode="&#x17d;" horiz-adv-x="1319" d="M74 0v155l957 1295h-924v154h1121v-155l-958 -1294h962v-155h-1158zM296 2107h170l183 -242h5l186 242h170l-282 -353h-159z" />
<glyph unicode="&#x17e;" horiz-adv-x="1052" d="M85 0h875v137h-684l682 821v135h-857v-137h667l-683 -819v-137zM166 1633h170l183 -242h5l186 242h170l-282 -353h-159z" />
<glyph unicode="&#x2000;" horiz-adv-x="1053" />
<glyph unicode="&#x2001;" horiz-adv-x="2107" />
<glyph unicode="&#x2002;" horiz-adv-x="1053" />
<glyph unicode="&#x2003;" horiz-adv-x="2107" />
<glyph unicode="&#x2004;" horiz-adv-x="702" />
<glyph unicode="&#x2005;" horiz-adv-x="526" />
<glyph unicode="&#x2006;" horiz-adv-x="351" />
<glyph unicode="&#x2007;" horiz-adv-x="351" />
<glyph unicode="&#x2008;" horiz-adv-x="263" />
<glyph unicode="&#x2009;" horiz-adv-x="421" />
<glyph unicode="&#x200a;" horiz-adv-x="117" />
<glyph unicode="&#x2010;" d="M153 556v169h587v-169h-587z" />
<glyph unicode="&#x2011;" d="M153 556v169h587v-169h-587z" />
<glyph unicode="&#x2012;" d="M153 556v169h587v-169h-587z" />
<glyph unicode="&#x2013;" horiz-adv-x="1247" d="M153 562v159h941v-159h-941z" />
<glyph unicode="&#x2014;" horiz-adv-x="2093" d="M153 562v159h1787v-159h-1787z" />
<glyph unicode="&#x2018;" horiz-adv-x="560" d="M126 1254q0 139 74.5 243t206.5 122v-83q-66 -13 -114.5 -76.5t-49.5 -136.5q22 13 52 13q58 0 94.5 -39t36.5 -97q0 -57 -42.5 -96t-100.5 -39q-74 0 -115.5 56t-41.5 133z" />
<glyph unicode="&#x2019;" horiz-adv-x="564" d="M147 1480q0 57 42.5 96t100.5 39q74 0 115.5 -56t41.5 -133q0 -139 -74.5 -243t-206.5 -122v83q66 13 114.5 76.5t49.5 136.5q-22 -13 -52 -13q-58 0 -94.5 39t-36.5 97z" />
<glyph unicode="&#x201a;" horiz-adv-x="587" d="M142 120q0 57 42.5 96t100.5 39q74 0 115.5 -56t41.5 -133q0 -139 -74.5 -243t-206.5 -122v83q66 13 114.5 76.5t49.5 136.5q-22 -13 -52 -13q-58 0 -94.5 39t-36.5 97z" />
<glyph unicode="&#x201c;" horiz-adv-x="955" d="M126 1254q0 139 74.5 243t206.5 122v-83q-66 -13 -114.5 -76.5t-49.5 -136.5q22 13 52 13q58 0 94.5 -39t36.5 -97q0 -57 -42.5 -96t-100.5 -39q-74 0 -115.5 56t-41.5 133zM521 1254q0 139 74.5 243t206.5 122v-83q-66 -13 -114.5 -76.5t-49.5 -136.5q22 13 52 13 q58 0 94.5 -39t36.5 -97q0 -57 -42.5 -96t-100.5 -39q-74 0 -115.5 56t-41.5 133z" />
<glyph unicode="&#x201d;" horiz-adv-x="958" d="M147 1480q0 57 42.5 96t100.5 39q74 0 115.5 -56t41.5 -133q0 -139 -74.5 -243t-206.5 -122v83q66 13 114.5 76.5t49.5 136.5q-22 -13 -52 -13q-58 0 -94.5 39t-36.5 97zM542 1480q0 57 42.5 96t100.5 39q74 0 115.5 -56t41.5 -133q0 -139 -74.5 -243t-206.5 -122v83 q66 13 114.5 76.5t49.5 136.5q-22 -13 -52 -13q-58 0 -94.5 39t-36.5 97z" />
<glyph unicode="&#x201e;" horiz-adv-x="982" d="M142 120q0 57 42.5 96t100.5 39q74 0 115.5 -56t41.5 -133q0 -139 -74.5 -243t-206.5 -122v83q66 13 114.5 76.5t49.5 136.5q-22 -13 -52 -13q-58 0 -94.5 39t-36.5 97zM537 120q0 57 42.5 96t100.5 39q74 0 115.5 -56t41.5 -133q0 -139 -74.5 -243t-206.5 -122v83 q66 13 114.5 76.5t49.5 136.5q-22 -13 -52 -13q-58 0 -94.5 39t-36.5 97z" />
<glyph unicode="&#x2026;" horiz-adv-x="1751" d="M139 129q0 61 43 104t104 43t104 -43t43 -104t-43 -104t-104 -43t-104 43t-43 104zM730 129q0 61 43 104t104 43t104 -43t43 -104t-43 -104t-104 -43t-104 43t-43 104zM1318 129q0 61 43 104t104 43t104 -43t43 -104t-43 -104t-104 -43t-104 43t-43 104z" />
<glyph unicode="&#x202f;" horiz-adv-x="421" />
<glyph unicode="&#x2039;" horiz-adv-x="710" d="M97 617l369 370l98 -97l-261 -269l261 -271l-98 -96z" />
<glyph unicode="&#x203a;" horiz-adv-x="710" d="M146 350l260 265l-260 275l98 97l369 -370l-369 -363z" />
<glyph unicode="&#x205f;" horiz-adv-x="526" />
<glyph unicode="&#x20ac;" horiz-adv-x="1875" d="M96 562v140h152q-4 41 -4 95t6 105h-154v140h181q75 262 288.5 420.5t485.5 158.5q126 0 236.5 -34t189 -88t140.5 -124.5t97.5 -141t52.5 -140.5l-161 -57q-10 39 -29.5 85t-64.5 109t-103.5 112t-153.5 84t-208 35q-202 0 -364.5 -114t-226.5 -305h738l-46 -141l-724 1 q-6 -47 -6 -95q0 -57 7 -105h672l-44 -140h-595q63 -189 222.5 -304t367.5 -115q110 0 202.5 33t149.5 78.5t104 110.5t68 110.5t39 97.5l161 -58q-18 -65 -52 -131.5t-95.5 -140.5t-140 -130t-193.5 -93t-248 -37q-277 0 -488 158t-281 421h-178z" />
<glyph unicode="&#x2122;" horiz-adv-x="2113" d="M81 1480v124h692v-124h-277v-801h-137v801h-278zM932 679v925h202l297 -749l287 749h212v-925h-131v783h-7l-305 -783h-115l-307 768h-7v-768h-126z" />
<glyph unicode="&#x25fc;" horiz-adv-x="1095" d="M0 0v1095h1095v-1095h-1095z" />
</font>
</defs>
</svg>
