<?xml version="1.0" standalone="no"?>
<!DOCTYPE svg PUBLIC "-//W3C//DTD SVG 1.1//EN" "http://www.w3.org/Graphics/SVG/1.1/DTD/svg11.dtd" >
<svg xmlns="http://www.w3.org/2000/svg" xmlns:xlink="http://www.w3.org/1999/xlink" version="1.1">
<metadata></metadata>
<defs>
<font id="gorditalight" horiz-adv-x="927" >
<font-face units-per-em="2048" ascent="1638" descent="-410" />
<missing-glyph horiz-adv-x="600" />
<glyph horiz-adv-x="0" />
<glyph horiz-adv-x="682" />
<glyph horiz-adv-x="0" />
<glyph horiz-adv-x="0" />
<glyph unicode="&#xd;" horiz-adv-x="600" />
<glyph unicode=" "  horiz-adv-x="600" />
<glyph unicode="&#x09;" horiz-adv-x="600" />
<glyph unicode="&#xa0;" horiz-adv-x="600" />
<glyph unicode="!" horiz-adv-x="535" d="M187 64q0 34 23.5 57.5t56.5 23.5t56 -23.5t23 -57.5t-23 -58t-56 -24t-56.5 24t-23.5 58zM225 1604h87l-5 -1178h-78z" />
<glyph unicode="&#x22;" horiz-adv-x="727" d="M160 1514q0 80 51 80q52 0 52 -80q0 -3 -4 -55l-29 -378h-38l-29 378q-3 38 -3 55zM465 1514q0 80 51 80q52 0 52 -80q0 -3 -4 -55l-29 -378h-38l-29 378q-3 38 -3 55z" />
<glyph unicode="#" horiz-adv-x="1619" d="M86 447v75h305l116 561h-291v75h306l92 446h79l-90 -446h573l92 446h79l-89 -446h276v-75h-291l-115 -561h277v-75h-293l-92 -447h-79l90 447h-573l-93 -447h-80l91 447h-290zM473 521h572l116 562h-573z" />
<glyph unicode="$" horiz-adv-x="1258" d="M91 446l79 22q10 -71 42 -137t84 -122.5t130.5 -93.5t173.5 -44v718l-96 19q-73 14 -134.5 40.5t-117 70t-87.5 112.5t-32 157q0 118 67 214t172 148.5t226 59.5v215h82v-216q97 -8 180 -46.5t137.5 -94.5t89.5 -117.5t47 -123.5l-77 -25q-7 36 -24 75t-49 82t-73.5 78.5 t-102 61.5t-130.5 33v-675l71 -14q217 -47 323 -180q79 -98 79 -231q0 -181 -135.5 -303t-335.5 -135v-203h-82v203q-135 9 -246.5 74t-177.5 164t-83 214zM217 1192q0 -120 78.5 -197.5t226.5 -107.5l78 -16v663q-99 -5 -185 -46.5t-142 -119.5t-56 -176zM678 71 q59 4 114 20t105.5 45.5t87.5 70t59 97.5t22 124q0 54 -16 101t-40 79t-58.5 59.5t-64.5 43t-66 28t-54 17t-37 8.5l-52 10v-703z" />
<glyph unicode="%" horiz-adv-x="1770" d="M82 1260q0 149 105.5 254.5t255.5 105.5q149 0 254.5 -105.5t105.5 -254.5t-105.5 -255t-254.5 -106q-150 0 -255.5 106t-105.5 255zM152 1260q0 -121 85 -206t206 -85q120 0 205 85t85 206q0 120 -85 205t-205 85q-121 0 -206 -85t-85 -205zM316 0l1043 1604h88 l-1040 -1604h-91zM966 349q0 149 106 254.5t255 105.5t255 -105.5t106 -254.5t-106 -254.5t-255 -105.5t-255 105.5t-106 254.5zM1036 349q0 -120 85.5 -205t205.5 -85t205 85t85 205t-85 205t-205 85t-205.5 -85t-85.5 -205z" />
<glyph unicode="&#x26;" horiz-adv-x="1427" d="M117 365q0 31 6.5 61t15 54.5t26 51.5t31 46t38.5 44t40.5 39t46 37.5t44.5 34t46.5 33.5t42.5 30l43 31l-89 97q-171 187 -171 337q0 148 106 253t267 105q171 0 272.5 -103.5t101.5 -251.5q0 -57 -20 -109t-58 -97t-76 -78t-91 -71l-128 -93l431 -468q127 169 213 394 l71 -26q-101 -252 -233 -424l269 -292h-107l-212 231q-217 -246 -483 -246h-10q-116 0 -213 43t-158.5 131t-61.5 206zM198 365q0 -97 53 -168t133.5 -104t174.5 -33q236 0 433 227l-443 483l-87 -59q-41 -28 -71 -50.5t-69 -58t-64 -68.5t-42.5 -76t-17.5 -85v-8zM317 1267 q0 -67 32.5 -133t116.5 -159l94 -104l140 102q43 31 74 58t63.5 64.5t50 80.5t17.5 89q0 124 -84 202.5t-214 78.5q-122 0 -206 -79t-84 -196v-4z" />
<glyph unicode="'" horiz-adv-x="423" d="M160 1514q0 80 51 80q52 0 52 -80q0 -3 -4 -55l-28 -378h-39l-29 378q-3 38 -3 55z" />
<glyph unicode="(" horiz-adv-x="812" d="M118 743v33q0 319 157.5 573t448.5 420l34 -54q-271 -161 -413.5 -391t-142.5 -555v-20q0 -325 142.5 -554.5t413.5 -391.5l-34 -54q-291 166 -448.5 420t-157.5 574z" />
<glyph unicode=")" horiz-adv-x="812" d="M54 -197q178 107 298.5 237t189 309.5t68.5 399.5v20q0 220 -68.5 400t-189 310t-298.5 236l34 54q291 -166 448.5 -420t157.5 -573v-33q0 -320 -157.5 -574t-448.5 -420z" />
<glyph unicode="*" horiz-adv-x="1057" d="M119 1274l22 66l363 -132l-11 396h72l-12 -396l363 132l22 -66l-375 -116l240 -300l-56 -41l-218 306l-219 -306l-56 41l240 300z" />
<glyph unicode="+" horiz-adv-x="1216" d="M112 732v74h463v458h80v-458h451v-74h-451v-464h-80v464h-463z" />
<glyph unicode="," horiz-adv-x="547" d="M170 70q0 37 27.5 62.5t64.5 25.5q55 0 83 -40t28 -101q0 -88 -50.5 -172t-145.5 -123v58q49 24 81.5 66t43.5 79.5t13 77.5q-22 -16 -56 -16q-37 0 -63 23t-26 60z" />
<glyph unicode="-" d="M163 610v79h601v-79h-601z" />
<glyph unicode="." horiz-adv-x="504" d="M163 73q0 37 26 63t63 26t63 -26t26 -63t-26 -63t-63 -26t-63 26t-26 63z" />
<glyph unicode="/" horiz-adv-x="940" d="M92 -10l672 1678h87l-671 -1678h-88z" />
<glyph unicode="0" horiz-adv-x="1564" d="M129 800q0 118 25 234t78 222.5t128 187t184.5 129t237.5 48.5q129 0 238 -47.5t184 -128t128 -186t78 -221t25 -234.5q0 -118 -24.5 -234t-78 -222.5t-128.5 -187t-184 -129t-238 -48.5t-237.5 47.5t-184 128t-128.5 186t-78 221t-25 234.5zM215 807q0 -104 21 -208 t67 -201.5t111.5 -172.5t161.5 -120t209 -45q112 0 207 44.5t159.5 118t110 170t66.5 199t21 206.5t-21 207.5t-67 201t-111 172.5t-161 120t-209 45t-208 -44.5t-159.5 -117.5t-110 -169.5t-66.5 -199t-21 -206.5z" />
<glyph unicode="1" horiz-adv-x="819" d="M42 1330l456 274h82v-1604h-85v1513l-416 -245z" />
<glyph unicode="2" horiz-adv-x="1272" d="M119 0v40q0 281 369 519l233 150q71 46 125 89.5t103.5 99t76 121t26.5 137.5q0 162 -116 275t-299 113q-210 0 -328 -142q-96 -114 -99 -271l-80 13q2 85 34 166.5t91.5 152.5t159.5 114.5t225 43.5q113 0 207.5 -38t157.5 -102t97.5 -147.5t34.5 -175.5 q0 -269 -337 -489l-235 -153q-189 -123 -271 -228t-88 -211h942v-77h-1029z" />
<glyph unicode="3" horiz-adv-x="1283" d="M106 432l80 22q24 -183 150.5 -288.5t301.5 -105.5q64 0 127.5 16.5t120 49.5t100 79t69 108.5t25.5 133.5q0 77 -31 146t-90.5 123t-155 86t-215.5 32h-77l-33 63l551 630h-887v77h987v-77l-540 -616q135 0 237 -34q61 -20 115.5 -53t107.5 -83.5t84.5 -126t31.5 -166.5 q0 -102 -44.5 -190.5t-118 -147.5t-169 -93t-197.5 -34q-204 0 -352 123.5t-178 325.5z" />
<glyph unicode="4" horiz-adv-x="1338" d="M56 398v87l860 1119h96v-1129h252v-77h-252v-398h-85v398h-871zM144 475h783v1018z" />
<glyph unicode="5" horiz-adv-x="1267" d="M96 408l79 17q20 -106 86 -190.5t159.5 -130t196.5 -45.5q79 0 158.5 31t145.5 87t107.5 143.5t41.5 190.5q0 132 -63.5 232.5t-163.5 151t-216 50.5q-247 0 -396 -188l-76 28l178 819h760v-78h-698l-144 -657q155 153 384 153q223 0 372 -146t149 -365 q0 -147 -75 -269.5t-199 -190.5t-267 -68q-97 0 -187 34t-158 91.5t-114.5 135.5t-59.5 164z" />
<glyph unicode="6" horiz-adv-x="1349" d="M134 699q0 278 96 488.5t270 323.5t401 113q142 0 287 -49l-24 -76q-139 48 -265 48q-154 0 -294 -69t-228 -197q-152 -218 -163 -568h3q37 82 92.5 144.5t109.5 95.5t115 53.5t100.5 26t73.5 5.5q147 0 269 -70t191 -187t69 -253q0 -77 -24.5 -155t-72 -147.5t-112 -124 t-152 -86.5t-183.5 -32q-100 0 -188.5 31.5t-152 85t-108 118t-66.5 135.5q-44 140 -44 346zM234 524q0 -127 62 -234t168 -168.5t231 -61.5q124 0 229.5 65t166 172.5t60.5 229.5q0 186 -134 310t-322 124q-120 0 -225 -54.5t-170.5 -156t-65.5 -226.5z" />
<glyph unicode="7" horiz-adv-x="1149" d="M54 1527v77h1041v-77l-742 -1527h-94l742 1527h-947z" />
<glyph unicode="8" horiz-adv-x="1349" d="M131 420q0 132 98.5 245t279.5 160q-169 51 -250 151.5t-81 226.5q0 98 46.5 179.5t120.5 131.5t160.5 77.5t172.5 27.5q87 0 173.5 -27.5t159 -78t118 -131.5t45.5 -179q0 -125 -82 -226t-250 -152q181 -47 278.5 -160.5t97.5 -244.5q0 -105 -46 -190.5t-123.5 -138.5 t-173 -81.5t-199.5 -28.5q-149 0 -270.5 48.5t-198 150t-76.5 240.5zM216 417q0 -109 64.5 -191.5t168 -124t226.5 -41.5q124 0 226.5 40.5t167 124t64.5 194.5q0 105 -63.5 189.5t-168.5 130t-228 45.5t-226 -44t-167 -129t-64 -194zM262 1202q0 -104 63.5 -184.5 t156.5 -119.5t194 -39q172 0 291 96t119 250q0 141 -117 238t-295 97t-295 -96.5t-117 -241.5z" />
<glyph unicode="9" horiz-adv-x="1347" d="M110 1079q0 101 39 198.5t108 174.5t173.5 124.5t224.5 47.5q152 0 286 -82t205 -240q67 -150 67 -399q0 -440 -198 -680t-544 -240q-157 0 -302 49l26 79q148 -51 273 -51q337 0 517 261q145 210 148 573h-3q-36 -82 -92.5 -145t-111 -96t-116.5 -54t-102.5 -26.5 t-74.5 -5.5q-107 0 -204.5 41.5t-167 111.5t-110.5 164t-41 195zM197 1080q0 -186 132 -311t318 -125q89 0 173.5 33t149.5 90t104 139.5t39 176.5q0 127 -62 234t-167.5 168.5t-230.5 61.5t-230 -63t-165.5 -170.5t-60.5 -233.5z" />
<glyph unicode=":" horiz-adv-x="504" d="M163 73q0 37 26 63t63 26t63 -26t26 -63t-26 -63t-63 -26t-63 26t-26 63zM163 1021q0 37 26 63t63 26t63 -26t26 -63t-26 -63t-63 -26t-63 26t-26 63z" />
<glyph unicode=";" horiz-adv-x="552" d="M176 70q0 37 27.5 62.5t64.5 25.5q55 0 83 -40t28 -101q0 -88 -50.5 -172t-145.5 -123v58q49 24 81.5 66t43.5 79.5t13 77.5q-22 -16 -56 -16q-37 0 -63 23t-26 60zM180 1021q0 37 26 63t63 26t63 -26t26 -63t-26 -63t-63 -26t-63 26t-26 63z" />
<glyph unicode="&#x3c;" horiz-adv-x="1322" d="M84 724v81l1061 538v-84l-977 -494l977 -489v-87z" />
<glyph unicode="=" horiz-adv-x="1279" d="M169 490v77h941v-77h-941zM169 973v77h941v-77h-941z" />
<glyph unicode="&#x3e;" horiz-adv-x="1321" d="M177 189v86l977 490l-977 493v85l1061 -539v-80z" />
<glyph unicode="?" horiz-adv-x="1096" d="M83 1165v10q0 193 135 319.5t330 126.5q124 0 227.5 -51.5t165.5 -146.5t62 -214q0 -49 -16.5 -100t-38 -90t-61 -87.5t-66 -77t-72.5 -74.5q-90 -90 -139 -175t-53 -179h-84q1 73 26 141t64.5 122t86.5 105.5t94.5 100t86 96t63 103.5t24.5 114q0 144 -107.5 239.5 t-262.5 95.5q-163 0 -271 -109t-109 -273zM434 64q0 34 23.5 57.5t56.5 23.5q32 0 55.5 -23.5t23.5 -57.5t-23.5 -58t-55.5 -24q-33 0 -56.5 24t-23.5 58z" />
<glyph unicode="@" horiz-adv-x="1786" d="M124 648q0 167 65.5 321t175.5 266.5t263 179.5t321 67q202 0 371.5 -85t273 -245.5t103.5 -364.5q0 -109 -47.5 -235.5t-140.5 -210.5q-88 -80 -203 -80q-87 0 -129 56.5t-36 112.5h-3q-39 -68 -128.5 -118.5t-189.5 -50.5q-144 0 -237.5 103.5t-93.5 247.5 q0 84 30.5 164t84 142.5t133 101t169.5 38.5q94 0 177 -50.5t115 -147.5h3l32 191h81l-94 -570q-6 -20 -3 -45.5t10.5 -48t31 -37.5t59.5 -15q68 0 130 51.5t100.5 121.5t56.5 144q18 76 18 133q0 180 -91 323.5t-244 221.5t-337 78q-154 0 -294 -62t-240.5 -165 t-159.5 -242.5t-59 -290.5q0 -208 95.5 -375t265 -261.5t379.5 -94.5q114 0 238 42.5t211 112.5l40 -62q-88 -76 -227.5 -121.5t-261.5 -45.5q-230 0 -416 103t-292 287.5t-106 414.5zM569 611q0 -113 74.5 -193.5t190.5 -80.5q129 0 225 89.5t114 217.5l3 21q4 27 4 54 q0 109 -74.5 186t-183.5 77q-154 0 -253.5 -107.5t-99.5 -263.5z" />
<glyph unicode="A" horiz-adv-x="1539" d="M15 0l708 1604h93l707 -1604h-91l-200 457h-929l-201 -457h-87zM337 534h861l-432 978z" />
<glyph unicode="B" horiz-adv-x="1482" d="M238 0v1604h523q113 0 203.5 -23t150 -61.5t99 -91t56.5 -109t17 -117.5q0 -51 -15.5 -103.5t-48 -106.5t-94 -98.5t-144.5 -67.5q96 -16 171.5 -59.5t118.5 -100.5t64.5 -117.5t21.5 -121.5q0 -189 -147 -308t-431 -119h-545zM323 77h464q234 0 361 94t127 256 q0 156 -124.5 254t-355.5 98h-472v-702zM323 857h454q210 0 317.5 96t107.5 246q0 146 -112 237t-330 91h-437v-670z" />
<glyph unicode="C" horiz-adv-x="1720" d="M120 800q0 168 59 319t162 261.5t251 175.5t317 65q120 0 227 -32.5t185.5 -85t141 -122t100.5 -140.5t57 -143l-77 -29q-11 43 -34.5 95.5t-75.5 122.5t-119.5 125t-174.5 93.5t-233 38.5q-200 0 -361.5 -100.5t-250 -268.5t-88.5 -368q0 -202 87.5 -372t249.5 -273 t365 -103q86 0 164 19t137.5 50t112 73.5t89.5 86t67.5 91.5t48 86t29.5 74l77 -29q-22 -69 -60 -137.5t-101.5 -140.5t-142 -126t-189 -89t-235.5 -35q-136 0 -258.5 41t-217.5 116.5t-165 176.5t-107 225t-37 259z" />
<glyph unicode="D" horiz-adv-x="1641" d="M238 0v1604h427q182 0 341 -61t272.5 -167t178.5 -255t65 -320q0 -175 -65.5 -325.5t-179.5 -254.5t-272 -162.5t-340 -58.5h-427zM323 77h344q218 0 393.5 91.5t275.5 257t100 373.5q0 207 -100.5 374t-277 260.5t-393.5 93.5h-342v-1450z" />
<glyph unicode="E" horiz-adv-x="1337" d="M238 0v1604h962v-77h-877v-670h807v-78h-807v-702h887v-77h-972z" />
<glyph unicode="F" horiz-adv-x="1271" d="M238 0v1604h952v-77h-868v-690h798v-78h-798v-759h-84z" />
<glyph unicode="G" horiz-adv-x="1751" d="M121 800q0 168 57.5 318.5t159.5 261.5t251.5 176t322.5 65q116 0 222 -30.5t185 -80.5t141.5 -115t99.5 -133.5t52 -136.5l-78 -27q-10 50 -38.5 106.5t-81.5 118t-122 110t-169 80t-213 31.5q-155 0 -287.5 -59t-223 -159.5t-141.5 -235t-51 -283.5q0 -208 86.5 -377.5 t248 -269.5t368.5 -100q104 0 200.5 26.5t177.5 79t142 124.5t95 168.5t34 205.5v6h-740v77h824v-78q0 -143 -53.5 -269t-149 -218t-234 -145.5t-300.5 -53.5q-228 0 -408 107.5t-278.5 293.5t-98.5 416z" />
<glyph unicode="H" horiz-adv-x="1687" d="M238 0v1604h85v-747h1041v747h85v-1604h-85v779h-1041v-779h-85z" />
<glyph unicode="I" horiz-adv-x="561" d="M238 0v1604h85v-1604h-85z" />
<glyph unicode="J" horiz-adv-x="1262" d="M94 476v166h84v-160q0 -107 31.5 -190t86 -132.5t123.5 -74.5t149 -25q176 0 282.5 117.5t106.5 295.5v1131h85v-1124q0 -221 -129 -359t-340 -138q-228 0 -353.5 131t-125.5 362z" />
<glyph unicode="K" horiz-adv-x="1326" d="M238 0v1604h85v-745h9l827 745h123l-856 -764l903 -840h-124l-873 813h-9v-813h-85z" />
<glyph unicode="L" horiz-adv-x="1182" d="M238 0v1604h84v-1527h801v-77h-885z" />
<glyph unicode="M" horiz-adv-x="2109" d="M238 0v1604h112l705 -1508l703 1508h113v-1604h-84v1482l-690 -1482h-85l-690 1477v-1477h-84z" />
<glyph unicode="N" horiz-adv-x="1743" d="M238 0v1604h101l1082 -1483v1483h84v-1604h-96l-1087 1490v-1490h-84z" />
<glyph unicode="O" horiz-adv-x="1818" d="M120 800q0 168 59 319t161.5 261.5t251 175.5t318.5 65q225 0 406.5 -110t281.5 -296.5t100 -410.5q0 -225 -100 -412.5t-282 -298t-408 -110.5q-225 0 -406.5 110t-281.5 296.5t-100 410.5zM206 807q0 -151 52.5 -287.5t144 -238t224.5 -161.5t285 -60q200 0 361.5 101 t249.5 269t88 368q0 150 -52 286t-143 238t-223.5 162t-284.5 60q-151 0 -283 -59t-223 -159t-143.5 -235t-52.5 -284z" />
<glyph unicode="P" horiz-adv-x="1357" d="M238 0v1604h452q126 0 227 -26t167 -70t110.5 -105t63.5 -127t19 -139q0 -79 -22 -149.5t-70 -131.5t-118 -105t-171 -69t-224 -25h-349v-657h-85zM323 737h350q137 0 240 33t162.5 90t88 126t28.5 148q0 61 -15.5 115.5t-53 106t-94.5 89t-146 60t-201 22.5h-359v-790z " />
<glyph unicode="Q" horiz-adv-x="1822" d="M120 800q0 168 59 318.5t161.5 261t251 175t318.5 64.5q225 0 406.5 -109.5t281.5 -295.5t100 -410q0 -163 -54.5 -308.5t-154.5 -256.5l225 -196l-56 -62l-227 200q-218 -196 -523 -196q-225 0 -406.5 109.5t-281.5 295.5t-100 410zM206 807q0 -151 52.5 -287 t144 -237.5t224.5 -161t285 -59.5q267 0 458 172l-321 281l56 62l323 -284q88 101 135.5 231t47.5 274q0 150 -52 286t-143 237t-223.5 161t-284.5 60q-151 0 -283 -58.5t-223 -158t-143.5 -234.5t-52.5 -284z" />
<glyph unicode="R" horiz-adv-x="1432" d="M238 0v1604h480q126 0 226.5 -26t165.5 -69.5t108 -103.5t61 -124t18 -134q0 -188 -125.5 -310t-364.5 -148l539 -689h-108l-531 680h-384v-680h-85zM323 758h375q110 0 198.5 22.5t146.5 60t97 88.5t55.5 104.5t16.5 110.5q0 59 -14.5 111.5t-51 103t-92 87t-143 59 t-199.5 22.5h-389v-769z" />
<glyph unicode="S" horiz-adv-x="1309" d="M112 442l80 22q11 -75 46.5 -145.5t93 -129t145 -94t191.5 -35.5q79 0 154 23.5t137 67.5t100 115.5t38 158.5q0 73 -27.5 133t-76 100t-107.5 66.5t-129 39.5l-228 44q-74 14 -136 41t-118 71t-88 114t-32 159q0 124 73 224t186.5 152t240.5 52q109 0 202.5 -36.5 t155.5 -95.5t101 -125t52 -133l-78 -25q-8 39 -27 81.5t-55.5 89.5t-84.5 83.5t-118.5 60t-151.5 23.5q-103 0 -196.5 -42t-154 -123t-60.5 -182q0 -125 78.5 -203t228.5 -107l230 -44q81 -15 152.5 -49t128.5 -85t90.5 -123.5t33.5 -157.5q0 -130 -70.5 -232.5 t-188.5 -157.5t-259 -55q-111 0 -209 38t-168.5 101.5t-116 146t-58.5 173.5z" />
<glyph unicode="T" horiz-adv-x="1253" d="M49 1527v77h1155v-77h-530v-1527h-85v1527h-540z" />
<glyph unicode="U" horiz-adv-x="1597" d="M216 624v980h85v-978q0 -276 134 -421t368 -145q126 0 221.5 41t154.5 116.5t88 177.5t29 229v980h85v-975q0 -298 -151 -472.5t-430 -174.5q-142 0 -253.5 47t-183.5 132t-109.5 202.5t-37.5 260.5z" />
<glyph unicode="V" horiz-adv-x="1536" d="M57 1604h91l621 -1506l620 1506h90l-665 -1604h-92z" />
<glyph unicode="W" horiz-adv-x="2258" d="M67 1604h90l459 -1495l473 1495h80l477 -1495l459 1495h86l-500 -1604h-93l-470 1467l-469 -1467h-93z" />
<glyph unicode="X" horiz-adv-x="1412" d="M24 0l631 818l-605 786h99l556 -727l557 727h100l-605 -785l630 -819h-100l-582 760l-581 -760h-100z" />
<glyph unicode="Y" horiz-adv-x="1469" d="M63 1604h102l571 -839l568 839h101l-628 -915v-689h-85v688z" />
<glyph unicode="Z" horiz-adv-x="1257" d="M63 0v77l1020 1450h-987v77h1081v-78l-1019 -1449h1022v-77h-1117z" />
<glyph unicode="[" horiz-adv-x="831" d="M223 -229v1978h532v-72h-452v-1835h452v-71h-532z" />
<glyph unicode="\" horiz-adv-x="940" d="M89 1668h87l672 -1678h-88z" />
<glyph unicode="]" horiz-adv-x="831" d="M76 -158h452v1835h-452v72h532v-1978h-532v71z" />
<glyph unicode="^" horiz-adv-x="1139" d="M125 923l405 681h82l402 -681h-90l-354 603l-355 -603h-90z" />
<glyph unicode="_" horiz-adv-x="1071" d="M0 -171h1071v-71h-1071v71z" />
<glyph unicode="`" horiz-adv-x="377" d="M28 1633h92l231 -353h-74z" />
<glyph unicode="a" horiz-adv-x="1157" d="M115 293q0 65 25 118t66.5 88.5t97.5 60t115.5 35.5t122.5 11h356v77q0 165 -86.5 259.5t-247.5 94.5q-73 0 -133 -20t-97.5 -50t-65 -70t-40 -74t-18.5 -69l-78 18q3 32 17.5 71.5t47.5 88.5t79 88.5t121 66t165 26.5q189 0 302.5 -110.5t113.5 -314.5v-308 q0 -270 18 -380h-81q-6 27 -11.5 112t-5.5 130q-63 -124 -174.5 -192.5t-241.5 -68.5q-158 0 -262.5 82t-104.5 230zM198 295q0 -113 81 -175.5t205 -62.5q112 0 205.5 46.5t151.5 137t58 208.5v84h-353q-63 0 -121.5 -13t-111 -39.5t-84 -74.5t-31.5 -111z" />
<glyph unicode="b" horiz-adv-x="1376" d="M195 0v1668h80v-871q58 139 180.5 227.5t279.5 88.5q154 0 276.5 -78.5t188 -207t65.5 -279.5q0 -112 -38 -214t-105.5 -180t-168.5 -124.5t-218 -46.5q-160 0 -281.5 87.5t-178.5 224.5v-295h-80zM271 545q0 -127 57 -237.5t164 -178.5t239 -68q202 0 326.5 138.5 t124.5 345.5v2q0 206 -126 347t-325 141q-135 0 -242 -70t-162.5 -179.5t-55.5 -234.5v-6z" />
<glyph unicode="c" horiz-adv-x="1263" d="M111 544q0 156 73 286.5t200 206.5t278 76q180 0 320.5 -101.5t180.5 -246.5l-75 -26q-8 30 -27.5 66t-56 78t-83.5 75.5t-115.5 56t-145.5 22.5q-131 0 -238.5 -68t-167 -179.5t-59.5 -240.5q0 -126 59 -238t167.5 -182.5t240.5 -70.5q79 0 147.5 23t114 56.5t82 77.5 t55 79t29.5 68l75 -26q-23 -69 -65.5 -130t-104 -112.5t-148.5 -82t-187 -30.5q-113 0 -215 44t-175 119t-116 179.5t-43 220.5z" />
<glyph unicode="d" horiz-adv-x="1377" d="M112 548q0 152 66 281t188.5 206.5t275.5 77.5q159 0 280.5 -87t180.5 -226v868h79v-1668h-79v299q-56 -137 -180.5 -226.5t-280.5 -89.5q-118 0 -219 46.5t-168 124.5t-105 180t-38 214zM195 550q0 -135 55.5 -246t159 -177t236.5 -66q132 0 239 68t164 178.5t57 237.5 v6q0 125 -55.5 234.5t-162.5 179.5t-242 70q-199 0 -325 -138t-126 -345v-2z" />
<glyph unicode="e" horiz-adv-x="1244" d="M111 548v5q0 109 40.5 211t110 179t168 123.5t207.5 46.5q130 0 229.5 -47t157 -128t86 -178.5t28.5 -208.5q1 -12 0 -18h-942q2 -125 59 -233t163.5 -175t238.5 -67q150 0 255.5 83t146.5 205l73 -23q-46 -152 -174.5 -246.5t-303.5 -94.5q-155 0 -280 77.5t-194 206.5 t-69 282zM196 606h858q-3 62 -18 121t-47.5 116t-79.5 99.5t-118 68.5t-158 26q-112 0 -211.5 -61.5t-159.5 -160.5t-66 -209z" />
<glyph unicode="f" horiz-adv-x="670" d="M56 1020v73h201v269q0 137 75.5 224t207.5 87q59 0 110 -20v-77q-49 19 -109 19q-92 0 -148 -59.5t-56 -176.5v-266h303v-73h-303v-1020h-80v1020h-201z" />
<glyph unicode="g" horiz-adv-x="1375" d="M112 555q0 152 65 279t187 203t276 76q157 0 279.5 -84.5t179.5 -221.5v286h81v-1048q0 -144 -42.5 -258t-116.5 -186t-170 -110t-207 -38q-192 0 -336.5 106.5t-193.5 277.5l76 26q11 -43 33.5 -87t62 -88.5t89 -79t118.5 -56t147 -21.5q207 0 333 136.5t126 373.5v266 q-56 -136 -179 -223.5t-280 -87.5t-279 78t-185.5 204.5t-63.5 276.5zM196 555q0 -207 124.5 -344t323.5 -137q133 0 239 66.5t163 175.5t57 236v6q0 124 -55 232t-162 176.5t-242 68.5q-199 0 -323.5 -135t-124.5 -343v-2z" />
<glyph unicode="h" horiz-adv-x="1284" d="M195 0v1668h80v-817q44 119 152 190.5t244 71.5q204 0 319 -126.5t115 -328.5v-658h-80v642q0 188 -97 291.5t-269 103.5q-161 0 -272.5 -116t-111.5 -293v-628h-80z" />
<glyph unicode="i" horiz-adv-x="471" d="M156 1472q0 34 23.5 58t56.5 24t56 -24t23 -58t-23 -58t-56 -24t-56.5 24t-23.5 58zM195 0v1093h81v-1093h-81z" />
<glyph unicode="j" horiz-adv-x="486" d="M-60 -466v-75q29 -5 73 -5q146 0 212 78.5t66 214.5v1346h-80v-1352q0 -41 -9.5 -76t-31 -67t-63.5 -50t-100 -18q-44 0 -67 4zM172 1472q0 34 23 58t56 24t56.5 -24t23.5 -58t-23.5 -58t-56.5 -24t-56 24t-23 58z" />
<glyph unicode="k" horiz-adv-x="1039" d="M195 0v1668h80v-1049h4l598 474h121l-632 -495l661 -598h-117l-630 577h-5v-577h-80z" />
<glyph unicode="l" horiz-adv-x="471" d="M195 0v1668h81v-1668h-81z" />
<glyph unicode="m" horiz-adv-x="1981" d="M195 0v1093h80v-226q39 98 133.5 172t226.5 74q151 0 245.5 -78.5t132.5 -204.5q44 117 146 200t239 83q101 0 180 -35.5t127 -97.5t72.5 -141.5t24.5 -171.5v-667h-80v656q0 178 -88.5 279.5t-245.5 101.5q-64 0 -126.5 -28t-112.5 -77t-80.5 -123.5t-30.5 -161.5v-647 h-80v659q0 176 -89.5 277t-242.5 101q-63 0 -125.5 -28.5t-112.5 -78t-81.5 -124.5t-31.5 -161v-645h-80z" />
<glyph unicode="n" horiz-adv-x="1284" d="M195 0v1093h80v-242q44 119 152 190.5t244 71.5q204 0 319 -126.5t115 -328.5v-658h-80v642q0 188 -97 291.5t-269 103.5q-161 0 -272.5 -116t-111.5 -293v-628h-80z" />
<glyph unicode="o" horiz-adv-x="1341" d="M111 543q0 118 43 223.5t117 181.5t178.5 120.5t222.5 44.5q156 0 284 -74t201 -203t73 -285q0 -157 -72 -287.5t-200.5 -206t-287.5 -75.5q-156 0 -284 74t-201.5 202.5t-73.5 284.5zM196 549q0 -134 61 -246.5t170.5 -178.5t244.5 -66q204 0 339.5 141t135.5 346 q0 135 -61.5 247.5t-172 178.5t-245.5 66t-243.5 -65.5t-168.5 -177t-60 -245.5z" />
<glyph unicode="p" horiz-adv-x="1376" d="M195 -539v1632h80v-296q58 139 180.5 227.5t279.5 88.5q154 0 276.5 -78.5t188 -207t65.5 -279.5q0 -112 -38 -214t-105.5 -180t-168.5 -124.5t-218 -46.5q-160 0 -281.5 87.5t-178.5 224.5v-834h-80zM271 545q0 -127 57 -237.5t164 -178.5t239 -68q202 0 326.5 138.5 t124.5 345.5v2q0 206 -126 347t-325 141q-135 0 -242 -70t-162.5 -179.5t-55.5 -234.5v-6z" />
<glyph unicode="q" horiz-adv-x="1377" d="M112 548q0 152 66 281t188.5 206.5t275.5 77.5q159 0 280.5 -87t180.5 -226v293h79v-1632h-79v838q-56 -137 -180.5 -226.5t-280.5 -89.5q-118 0 -219 46.5t-168 124.5t-105 180t-38 214zM195 550q0 -135 55.5 -246t159 -177t236.5 -66q132 0 239 68t164 178.5t57 237.5 v6q0 125 -55.5 234.5t-162.5 179.5t-242 70q-199 0 -325 -138t-126 -345v-2z" />
<glyph unicode="r" horiz-adv-x="724" d="M195 0v1093h80v-285q43 131 157 215.5t251 84.5q6 0 20 -2v-80q-3 0 -8.5 0.5t-7.5 0.5q-131 0 -226.5 -68t-140.5 -174.5t-45 -234.5v-550h-80z" />
<glyph unicode="s" horiz-adv-x="1015" d="M106 299l78 20q22 -130 113.5 -195.5t229.5 -65.5q69 0 133.5 23t111.5 75.5t47 124.5q0 80 -56.5 139t-159.5 79l-207 40q-109 21 -185.5 95.5t-76.5 181.5q0 93 56 162.5t137 102t171 32.5q142 0 251.5 -73t135.5 -208l-76 -22q-21 110 -107 168.5t-207 58.5 q-68 0 -130.5 -23t-106 -74.5t-43.5 -121.5q0 -82 58.5 -135t143.5 -69l208 -40q127 -25 201 -107t74 -184q0 -73 -33 -132t-87 -95t-119.5 -55t-134.5 -19q-164 0 -277.5 80.5t-142.5 236.5z" />
<glyph unicode="t" horiz-adv-x="706" d="M47 1020v73h207v314h80v-314h293v-73h-293v-731q0 -120 43 -171t161 -51q37 0 89 9v-76q-47 -9 -94 -9q-152 0 -215.5 69t-63.5 220v740h-207z" />
<glyph unicode="u" horiz-adv-x="1284" d="M179 434v659h80v-643q0 -188 97 -291t269 -103q161 0 272.5 116t111.5 293v628h80v-1093h-80v242q-44 -119 -152 -190.5t-244 -71.5q-204 0 -319 126t-115 328z" />
<glyph unicode="v" horiz-adv-x="1163" d="M56 1093h89l437 -1006l438 1006h87l-483 -1093h-84z" />
<glyph unicode="w" horiz-adv-x="1757" d="M60 1093h88l340 -997l352 997h79l351 -997l347 997h81l-387 -1093h-83l-348 983l-351 -983h-83z" />
<glyph unicode="x" horiz-adv-x="1091" d="M46 0l451 556l-433 537h99l383 -480l387 480h94l-432 -534l450 -559h-100l-399 501l-406 -501h-94z" />
<glyph unicode="y" horiz-adv-x="1184" d="M52 1093h90l467 -941l446 941h86l-775 -1632h-86l285 602z" />
<glyph unicode="z" horiz-adv-x="1019" d="M77 0v73l759 947h-740v73h836v-72l-758 -948h760v-73h-857z" />
<glyph unicode="{" horiz-adv-x="829" d="M46 724v71h20q60 0 110.5 18t90.5 55t57 101t4 149l-34 227q-9 71 -11 132t19.5 111t66 85.5t128.5 55t207 19.5h50v-71h-36q-172 0 -253 -34t-95.5 -106.5t3.5 -186.5l33 -219q6 -40 6.5 -78.5t-9.5 -88t-33.5 -88t-72 -71t-117.5 -44.5v-2q69 -12 117.5 -45t72 -72 t33.5 -89t9.5 -88t-6.5 -77l-33 -219q-18 -113 -3.5 -186t95.5 -107t253 -34h36v-71h-50q-123 0 -207 19.5t-128.5 55t-66 85.5t-19.5 111t11 132l34 227q13 85 -4 149.5t-57 101t-90.5 54.5t-110.5 18h-20z" />
<glyph unicode="|" horiz-adv-x="524" d="M223 -238v2063h78v-2063h-78z" />
<glyph unicode="}" horiz-adv-x="829" d="M75 -158h35q172 0 253 34t95.5 107t-3.5 186l-33 219q-6 39 -6.5 77.5t10 88t33.5 88.5t71.5 72t117.5 45v2q-69 12 -117.5 44.5t-71.5 71t-33.5 88t-10 88t6.5 78.5l33 219q19 114 4.5 186.5t-95.5 106.5t-254 34h-35v71h49q123 0 207.5 -19.5t129 -55t66 -85.5 t19.5 -111t-11 -132l-34 -227q-13 -85 4 -149t57 -101t90.5 -55t110.5 -18h20v-71h-20q-60 0 -110.5 -18t-90.5 -54.5t-57 -101t-4 -149.5l34 -227q8 -55 10.5 -96.5t-3 -85.5t-22 -75.5t-47.5 -60.5t-77.5 -46.5t-115 -28t-156.5 -10.5h-49v71z" />
<glyph unicode="~" horiz-adv-x="1265" d="M170 675q40 53 100 84.5t126 31.5q48 0 98.5 -18t83 -37t83.5 -54q52 -35 74.5 -49.5t63.5 -31t75 -16.5q52 0 91.5 22t81.5 65l50 -49q-39 -53 -99.5 -84.5t-125.5 -31.5q-57 0 -110 24.5t-123 70.5q-5 4 -26 18t-28 18.5t-26 16.5t-28 16.5t-25.5 13.5t-28 12.5 t-26.5 8.5t-29 6.5t-28 1.5q-52 0 -92 -22.5t-82 -65.5z" />
<glyph unicode="&#xa2;" horiz-adv-x="1269" d="M120 544q0 221 142.5 381t353.5 180v199h80v-197q168 -9 297 -108t168 -235l-73 -25q-10 37 -38 81.5t-74 92t-121 81.5t-162 39l1 -972q89 5 163 39.5t120 84t73 93t41 84.5l73 -24q-22 -65 -61.5 -123.5t-96.5 -108.5t-137 -81.5t-173 -36.5v-197h-80v198 q-212 18 -354 176.5t-142 378.5zM202 549q0 -182 118 -325t299 -161v969q-180 -18 -298.5 -158.5t-118.5 -324.5z" />
<glyph unicode="&#xa3;" horiz-adv-x="1289" d="M115 0v77q120 100 204 227t84 255q0 79 -29 176h-249v77h223q-7 20 -27 71.5t-29.5 79t-22 70.5t-18 81.5t-5.5 77.5q0 185 126.5 305.5t312.5 120.5q192 0 306 -100t125 -251l-82 -12q-8 123 -98.5 205.5t-251.5 82.5q-151 0 -252 -100.5t-101 -251.5q0 -47 11.5 -102.5 t21 -85.5t37 -102.5t33.5 -88.5h452v-77h-427q28 -92 28 -174q0 -245 -268 -484h594q68 0 122 19t85 48t52 65.5t28 67.5t7 59l83 -10q0 -51 -21.5 -105.5t-63.5 -105t-116.5 -83t-167.5 -32.5h-706z" />
<glyph unicode="&#xa5;" horiz-adv-x="1415" d="M79 1604h96l533 -839l532 839h96l-555 -858h436v-74h-469v-289h469v-75h-469v-308h-80l-1 308h-470v75h470v289h-470v74h438z" />
<glyph unicode="&#xa8;" horiz-adv-x="538" d="M32 1451q0 34 23.5 58t56.5 24t56 -24t23 -58t-23 -58t-56 -24t-56.5 24t-23.5 58zM355 1451q0 34 23 58t56 24t56.5 -24t23.5 -58t-23.5 -58t-56.5 -24t-56 24t-23 58z" />
<glyph unicode="&#xa9;" horiz-adv-x="1856" d="M123 803q0 167 63.5 318t171 260.5t256 174t312.5 64.5t313 -64.5t257.5 -174t172.5 -261t64 -317.5q0 -222 -108.5 -410t-294.5 -297.5t-404 -109.5t-403 109.5t-292.5 297.5t-107.5 410zM194 803q0 -152 58 -290.5t156 -238t233.5 -158t284.5 -58.5q150 0 285.5 58.5 t233.5 158t156 237.5t58 291q0 204 -98 376.5t-266.5 272.5t-368.5 100q-199 0 -367.5 -100t-266.5 -272.5t-98 -376.5zM455 801q0 137 64.5 253t177 183.5t246.5 67.5q159 0 283.5 -90.5t160.5 -220.5l-71 -24q-9 35 -35 76.5t-70 85t-115.5 72.5t-154.5 29 q-114 0 -208.5 -60t-146.5 -157.5t-52 -209.5q0 -111 51.5 -209.5t146.5 -160.5t211 -62q69 0 129 20.5t99.5 50t72 68t49 69.5t26.5 61l71 -24q-21 -62 -58.5 -116.5t-92.5 -100.5t-132 -73t-166 -27q-204 0 -345 145t-141 354z" />
<glyph unicode="&#xab;" horiz-adv-x="1124" d="M108 617l373 364l52 -50l-322 -314l322 -309l-52 -49zM537 617l373 364l52 -50l-322 -314l322 -309l-52 -49z" />
<glyph unicode="&#xad;" d="M163 610v79h601v-79h-601z" />
<glyph unicode="&#xae;" horiz-adv-x="1280" d="M119 1092q0 108 41 205.5t111 168t166 112.5t202 42q142 0 262 -70.5t190 -192t70 -265.5t-70 -265.5t-190 -192.5t-262 -71q-141 0 -261 71t-189.5 192.5t-69.5 265.5zM183 1092q0 -194 133.5 -332.5t322.5 -138.5t323 138t134 333q0 194 -134 332.5t-323 138.5 q-124 0 -229 -63.5t-166 -172t-61 -235.5zM454 788v606h210q104 0 158 -50t54 -126q0 -74 -47 -119t-119 -55l176 -256h-76l-168 245h-125v-245h-63zM517 1091h141q77 0 115.5 36.5t38.5 87.5t-36.5 85.5t-116.5 34.5h-142v-244z" />
<glyph unicode="&#xb4;" horiz-adv-x="367" d="M28 1280l231 353h92l-249 -353h-74z" />
<glyph unicode="&#xbb;" horiz-adv-x="1124" d="M162 308l322 309l-322 314l52 50l373 -364l-373 -358zM591 308l321 309l-321 314l52 50l373 -364l-373 -358z" />
<glyph unicode="&#x106;" horiz-adv-x="1725" d="M120 800q0 168 60 319t163.5 261.5t252.5 175.5t318 65q120 0 227 -32.5t185.5 -85t141 -122t100.5 -140.5t57 -143l-77 -29q-11 43 -34.5 95.5t-75.5 122.5t-119.5 125t-174.5 93.5t-233 38.5q-150 0 -282 -59t-224 -158.5t-144.5 -235t-52.5 -284.5q0 -150 52 -287 t143.5 -239t224 -162t285.5 -60q86 0 164 19t137.5 50t112 73.5t89.5 86t67.5 91.5t48 86t29.5 74l77 -29q-22 -69 -60 -137.5t-101.5 -140.5t-142 -126t-189 -89t-235.5 -35q-226 0 -407.5 109.5t-282 296.5t-100.5 412zM865 1750l231 353h92l-249 -353h-74z" />
<glyph unicode="&#x107;" horiz-adv-x="1264" d="M111 544q0 156 73 286.5t200.5 206.5t278.5 76q180 0 320.5 -101.5t180.5 -246.5l-75 -26q-8 30 -27.5 66t-56 78t-83.5 75.5t-115.5 56t-145.5 22.5q-131 0 -238.5 -68t-167 -179.5t-59.5 -240.5q0 -126 59 -238t167.5 -182.5t240.5 -70.5q79 0 147.5 23t114 56.5 t82 77.5t55 79t29.5 68l75 -26q-23 -69 -65.5 -130t-104 -112.5t-148.5 -82t-187 -30.5q-151 0 -277.5 74.5t-199.5 204t-73 284.5zM616 1280l231 353h92l-249 -353h-74z" />
<glyph unicode="&#x10c;" horiz-adv-x="1725" d="M120 800q0 -225 100.5 -412t282 -296.5t407.5 -109.5q125 0 235.5 35t189 89t142 126t101.5 140.5t60 137.5l-77 29q-12 -36 -29.5 -74t-48 -86t-67.5 -91.5t-89.5 -86t-112 -73.5t-137.5 -50t-164 -19q-153 0 -285.5 60t-224 162t-143.5 239t-52 287q0 149 52.5 284.5 t144.5 235t224 158.5t282 59q126 0 233 -38.5t174.5 -93.5t119.5 -125t75.5 -122.5t34.5 -95.5l77 29q-19 72 -57 143t-100.5 140.5t-141 122t-185.5 85t-227 32.5q-169 0 -318 -65t-252.5 -175.5t-163.5 -261.5t-60 -319zM599 2103h80l238 -290l238 290h79l-272 -353h-90z " />
<glyph unicode="&#x10d;" horiz-adv-x="1263" d="M111 544q0 156 73 286.5t200 206.5t278 76q180 0 320.5 -101.5t180.5 -246.5l-75 -26q-8 30 -27.5 66t-56 78t-83.5 75.5t-115.5 56t-145.5 22.5q-131 0 -238.5 -68t-167 -179.5t-59.5 -240.5q0 -126 59 -238t167.5 -182.5t240.5 -70.5q79 0 147.5 23t114 56.5t82 77.5 t55 79t29.5 68l75 -26q-23 -69 -65.5 -130t-104 -112.5t-148.5 -82t-187 -30.5q-113 0 -215 44t-175 119t-116 179.5t-43 220.5zM347 1613h79l238 -290l238 290h79l-272 -353h-90z" />
<glyph unicode="&#x110;" horiz-adv-x="1642" d="M71 779v78h168v747h427q182 0 341 -61t272.5 -167t178.5 -255t65 -320q0 -175 -65.5 -325.5t-179.5 -254.5t-272 -162.5t-340 -58.5h-427v779h-168zM324 77h344q218 0 393.5 91.5t275.5 257t100 373.5q0 207 -100.5 374t-277 260.5t-393.5 93.5h-342v-670h557v-78h-557 v-702z" />
<glyph unicode="&#x111;" horiz-adv-x="1378" d="M112 548q0 114 39 217t108 180t169 122.5t215 45.5q159 0 280.5 -87t179.5 -226v545h-447v73h447v250h80v-250h131v-73h-131v-1345h-80v299q-56 -137 -180.5 -226.5t-280.5 -89.5q-118 0 -219 46.5t-168 124.5t-105 180t-38 214zM195 550q0 -207 126 -348t326 -141 q132 0 239 68t164 178.5t57 237.5v6q0 93 -33 180t-91.5 154.5t-146.5 108.5t-189 41q-200 0 -326 -137.5t-126 -345.5v-2z" />
<glyph unicode="&#x160;" horiz-adv-x="1309" d="M112 442q13 -91 58.5 -173.5t116 -146t168.5 -101.5t209 -38q141 0 259 55t188.5 157.5t70.5 232.5q0 85 -33.5 157.5t-90.5 123.5t-128.5 85t-152.5 49l-230 44q-150 29 -228.5 107t-78.5 203q0 101 60.5 182t154 123t196.5 42q81 0 151.5 -23.5t118.5 -60t84.5 -83.5 t55.5 -89.5t27 -81.5l78 25q-13 67 -52 133t-101 125t-155.5 95.5t-202.5 36.5q-127 0 -240.5 -52t-186.5 -152t-73 -224q0 -89 32 -159t88 -114t118 -71t136 -41l228 -44q70 -13 129 -39.5t107.5 -66.5t76 -100t27.5 -133q0 -87 -38 -158.5t-100 -115.5t-137 -67.5 t-154 -23.5q-104 0 -191.5 35.5t-145 94t-93 129t-46.5 145.5zM330 2106h79l238 -290l238 290h79l-272 -353h-90z" />
<glyph unicode="&#x161;" horiz-adv-x="1015" d="M106 299l78 20q22 -130 113.5 -195.5t229.5 -65.5q69 0 133.5 23t111.5 75.5t47 124.5q0 80 -56.5 139t-159.5 79l-207 40q-109 21 -185.5 95.5t-76.5 181.5q0 93 56 162.5t137 102t171 32.5q142 0 251.5 -73t135.5 -208l-76 -22q-21 110 -107 168.5t-207 58.5 q-68 0 -130.5 -23t-106 -74.5t-43.5 -121.5q0 -82 58.5 -135t143.5 -69l208 -40q127 -25 201 -107t74 -184q0 -73 -33 -132t-87 -95t-119.5 -55t-134.5 -19q-164 0 -277.5 80.5t-142.5 236.5zM183 1613h79l238 -290l238 290h79l-272 -353h-90z" />
<glyph unicode="&#x17d;" horiz-adv-x="1257" d="M63 0h1117v77h-1022l1019 1449v78h-1081v-77h987l-1020 -1450v-77zM320 2103h79l238 -290l238 290h79l-272 -353h-90z" />
<glyph unicode="&#x17e;" horiz-adv-x="1019" d="M77 0v73l759 947h-740v73h836v-72l-758 -948h760v-73h-857zM195 1613h79l238 -290l238 290h79l-272 -353h-90z" />
<glyph unicode="&#x2c6;" horiz-adv-x="670" d="M20 1280l272 353h90l272 -353h-79l-238 290l-238 -290h-79z" />
<glyph unicode="&#x2000;" horiz-adv-x="1053" />
<glyph unicode="&#x2001;" horiz-adv-x="2106" />
<glyph unicode="&#x2002;" horiz-adv-x="1053" />
<glyph unicode="&#x2003;" horiz-adv-x="2106" />
<glyph unicode="&#x2004;" horiz-adv-x="702" />
<glyph unicode="&#x2005;" horiz-adv-x="526" />
<glyph unicode="&#x2006;" horiz-adv-x="351" />
<glyph unicode="&#x2007;" horiz-adv-x="351" />
<glyph unicode="&#x2008;" horiz-adv-x="263" />
<glyph unicode="&#x2009;" horiz-adv-x="421" />
<glyph unicode="&#x200a;" horiz-adv-x="117" />
<glyph unicode="&#x2010;" d="M163 610v79h601v-79h-601z" />
<glyph unicode="&#x2011;" d="M163 610v79h601v-79h-601z" />
<glyph unicode="&#x2012;" d="M163 610v79h601v-79h-601z" />
<glyph unicode="&#x2013;" horiz-adv-x="1267" d="M163 612v74h941v-74h-941z" />
<glyph unicode="&#x2014;" horiz-adv-x="2113" d="M163 612v74h1787v-74h-1787z" />
<glyph unicode="&#x2018;" horiz-adv-x="494" d="M141 1323q0 88 51 173t146 124v-59q-72 -35 -103.5 -96.5t-35.5 -127.5q18 17 57 17q37 0 62.5 -22.5t25.5 -59.5t-28 -62.5t-64 -25.5q-55 0 -83 39.5t-28 99.5z" />
<glyph unicode="&#x2019;" horiz-adv-x="495" d="M164 1528q0 38 27 63t65 25q55 0 83 -40.5t28 -100.5q0 -88 -51 -172t-146 -123v57q72 35 103.5 97t33.5 126q-22 -16 -55 -16q-36 0 -62 23.5t-26 60.5z" />
<glyph unicode="&#x201a;" horiz-adv-x="547" d="M170 70q0 38 27 63t65 25q55 0 83 -40t28 -102q0 -55 -20.5 -110.5t-66.5 -106.5t-110 -78v60q38 18 66 45.5t42.5 59t21.5 59.5t9 57q-22 -14 -57 -14q-37 0 -62.5 22t-25.5 60z" />
<glyph unicode="&#x201c;" horiz-adv-x="811" d="M141 1323q0 88 51 173t146 124v-59q-72 -35 -103.5 -96.5t-35.5 -127.5q18 17 57 17q37 0 62.5 -22.5t25.5 -59.5t-28 -62.5t-64 -25.5q-55 0 -83 39.5t-28 99.5zM459 1323q0 88 50.5 173t145.5 124v-59q-49 -24 -81.5 -66t-44 -80t-13.5 -78q21 17 57 17q37 0 63 -22.5 t26 -59.5t-27.5 -62.5t-65.5 -25.5q-55 0 -82.5 39.5t-27.5 99.5z" />
<glyph unicode="&#x201d;" horiz-adv-x="813" d="M164 1528q0 38 27 63t65 25q55 0 83 -40.5t28 -100.5q0 -88 -51 -172t-146 -123v57q72 35 103.5 97t33.5 126q-22 -16 -55 -16q-36 0 -62 23.5t-26 60.5zM481 1528q0 38 27 63t65 25q55 0 83 -40.5t28 -100.5q0 -88 -50.5 -172t-146.5 -123v57q72 35 104 97t34 126 q-24 -16 -56 -16q-36 0 -62 23.5t-26 60.5z" />
<glyph unicode="&#x201e;" horiz-adv-x="865" d="M170 70q0 38 27 63t65 25q55 0 83 -40t28 -102q0 -55 -20.5 -110.5t-66.5 -106.5t-110 -78v60q38 18 66 45.5t42.5 59t21.5 59.5t9 57q-22 -14 -57 -14q-37 0 -62.5 22t-25.5 60zM487 70q0 37 28 62.5t65 25.5q55 0 82.5 -40t27.5 -102q0 -55 -20 -110t-66 -106.5 t-110 -78.5v60q71 34 103 95.5t36 125.5q-21 -14 -58 -14t-62.5 22t-25.5 60z" />
<glyph unicode="&#x2026;" horiz-adv-x="1453" d="M163 73q0 37 26 63t63 26t63 -26t26 -63t-26 -63t-63 -26t-63 26t-26 63zM637 73q0 37 26 63t63 26t63 -26t26 -63t-26 -63t-63 -26t-63 26t-26 63zM1112 73q0 37 26 63t63 26t63 -26t26 -63t-26 -63t-63 -26t-63 26t-26 63z" />
<glyph unicode="&#x202f;" horiz-adv-x="421" />
<glyph unicode="&#x2039;" horiz-adv-x="694" d="M108 617l372 364l52 -50l-321 -314l321 -309l-52 -49z" />
<glyph unicode="&#x203a;" horiz-adv-x="694" d="M162 308l321 309l-321 314l51 50l373 -364l-373 -358z" />
<glyph unicode="&#x205f;" horiz-adv-x="526" />
<glyph unicode="&#x20ac;" horiz-adv-x="1890" d="M102 583v78h176q-11 71 -11 139q0 70 11 144h-176v77h192q67 265 273.5 432.5t488.5 167.5q120 0 227 -32.5t185.5 -85t141 -122t100.5 -140.5t57 -143l-77 -29q-11 43 -34.5 95.5t-75.5 122.5t-119.5 125t-174.5 93.5t-233 38.5q-245 0 -426.5 -146t-244.5 -377h835 l-27 -77h-825q-12 -66 -12 -137q0 -70 13 -146h739l-25 -78h-697q65 -231 245.5 -377.5t426.5 -146.5q86 0 164 19t137.5 50t112 73.5t89.5 86t67.5 91.5t48 86t29.5 74l77 -29q-22 -69 -60 -137.5t-101.5 -140.5t-142 -126t-189 -89t-235.5 -35q-283 0 -488.5 167.5 t-270.5 433.5h-191z" />
<glyph unicode="&#x2122;" horiz-adv-x="2075" d="M82 1531v73h647v-73h-282v-852h-82v852h-283zM905 679v925h123l366 -832l356 832h130v-925h-79v858h-5l-369 -858h-69l-372 849h-4v-849h-77z" />
<glyph unicode="&#x25fc;" horiz-adv-x="1095" d="M0 0v1095h1095v-1095h-1095z" />
</font>
</defs>
</svg>
