<?xml version="1.0" standalone="no"?>
<!DOCTYPE svg PUBLIC "-//W3C//DTD SVG 1.1//EN" "http://www.w3.org/Graphics/SVG/1.1/DTD/svg11.dtd" >
<svg xmlns="http://www.w3.org/2000/svg" xmlns:xlink="http://www.w3.org/1999/xlink" version="1.1">
<metadata></metadata>
<defs>
<font id="gorditablack" horiz-adv-x="1418" >
<font-face units-per-em="2048" ascent="1638" descent="-410" />
<missing-glyph horiz-adv-x="480" />
<glyph horiz-adv-x="0" />
<glyph horiz-adv-x="682" />
<glyph horiz-adv-x="0" />
<glyph horiz-adv-x="0" />
<glyph unicode="&#xd;" horiz-adv-x="480" />
<glyph unicode=" "  horiz-adv-x="480" />
<glyph unicode="&#x09;" horiz-adv-x="480" />
<glyph unicode="&#xa0;" horiz-adv-x="480" />
<glyph unicode="!" horiz-adv-x="719" d="M138 198q0 93 65 158.5t158 65.5q92 0 157.5 -65.5t65.5 -158.5q0 -92 -65.5 -157.5t-157.5 -65.5q-93 0 -158 65.5t-65 157.5zM149 1367v237h419v-235l-32 -824h-354z" />
<glyph unicode="&#x22;" horiz-adv-x="1082" d="M84 1378q0 94 56.5 155t147.5 61q92 0 152 -62t60 -154q0 -48 -9 -79l-124 -453h-160l-114 453q-9 33 -9 79zM585 1378q0 94 56.5 155t147.5 61q92 0 152 -62t60 -154q0 -48 -9 -79l-124 -453h-160l-114 453q-9 33 -9 79z" />
<glyph unicode="#" horiz-adv-x="1694" d="M81 327v333h276l53 291h-219v333h276l56 304h323l-56 -304l293 -1l54 305h323l-54 -305h204v-332h-263l-51 -291h204v-333h-268l-60 -327h-321l60 327h-294l-60 -327h-322l60 327h-214zM673 656h305l52 299h-302z" />
<glyph unicode="$" horiz-adv-x="1414" d="M72 496l356 85q15 -107 74 -168t148 -80v295l-72 14q-201 39 -323 161t-122 305q0 135 70 247t186.5 179t256.5 81v210h152v-211q120 -12 215.5 -57t153.5 -110.5t91 -136.5t44 -148l-349 -98q-12 78 -52 133t-107 75v-288l71 -12q218 -37 342 -168.5t124 -311.5 q0 -91 -36.5 -176t-103 -153.5t-168.5 -114t-225 -55.5v-202h-152v202q-247 21 -392 154.5t-182 348.5zM528 1139q0 -100 118 -130l4 -1v268q-58 -15 -90 -55t-32 -82zM794 331q68 14 101.5 55t33.5 89q0 102 -135 126v-270z" />
<glyph unicode="%" horiz-adv-x="1975" d="M66 1230q0 162 114.5 276t275.5 114t275.5 -114t114.5 -276q0 -161 -114.5 -275t-275.5 -114t-275.5 114t-114.5 275zM298 0l1052 1604h325l-1050 -1604h-327zM341 1230q0 -48 32.5 -83t82.5 -35t82.5 35t32.5 83q0 50 -32 85t-83 35q-50 0 -82.5 -35.5t-32.5 -84.5z M1129 377q0 162 114 276t276 114q161 0 275.5 -114t114.5 -276q0 -161 -114.5 -275t-275.5 -114q-162 0 -276 114t-114 275zM1404 377q0 -49 32.5 -83.5t82.5 -34.5t82.5 35t32.5 83q0 49 -32.5 84.5t-82.5 35.5t-82.5 -35.5t-32.5 -84.5z" />
<glyph unicode="&#x26;" horiz-adv-x="1542" d="M79 427q0 236 278 417l-51 58q-60 69 -92 146.5t-32 144.5q0 179 137 308t340 129q124 0 234 -56.5t177 -155.5t67 -215q0 -117 -54.5 -207t-172.5 -158l-83 -48l201 -227q89 129 118 242h322q-13 -101 -77 -225.5t-163 -242.5l299 -337h-424l-107 121 q-202 -144 -386 -144q-83 0 -159 16.5t-144.5 52t-118.5 87t-79.5 127.5t-29.5 167zM424 459q0 -39 13 -70t34 -50t49 -31.5t55.5 -17.5t56.5 -5q79 0 170 55l-253 287q-125 -83 -125 -168zM515 1193q0 -27 11 -52t47 -65l60 -68l107 63q72 42 72 122q0 49 -42.5 89 t-104.5 40q-65 0 -107.5 -40t-42.5 -89z" />
<glyph unicode="'" horiz-adv-x="581" d="M84 1378q0 93 56.5 154.5t146.5 61.5q92 0 152.5 -62t60.5 -154q0 -48 -9 -79l-124 -453h-160l-114 453q-9 33 -9 79z" />
<glyph unicode="(" horiz-adv-x="847" d="M80 736v36q0 351 149.5 614.5t428.5 407.5l159 -209q-198 -131 -303 -337t-105 -477v-35q0 -271 105 -477t303 -337l-159 -208q-279 144 -428.5 407.5t-149.5 614.5z" />
<glyph unicode=")" horiz-adv-x="847" d="M30 -78q198 132 303 338t105 476v35q0 270 -105 476t-303 338l159 209q279 -144 428.5 -407.5t149.5 -614.5v-36q0 -351 -149.5 -614.5t-428.5 -407.5z" />
<glyph unicode="*" horiz-adv-x="1036" d="M72 1192l76 227l245 -80v265h247v-265l246 80l78 -227l-248 -81l151 -210l-193 -142l-157 212l-155 -212l-194 142l151 210z" />
<glyph unicode="+" horiz-adv-x="1252" d="M76 585v326l380 1v382h340v-383h380v-326h-380v-387h-340v387h-380z" />
<glyph unicode="," horiz-adv-x="659" d="M88 183q0 92 68 155t163 63q62 0 111 -24.5t78 -65.5t43.5 -91.5t14.5 -106.5q0 -189 -119 -325.5t-326 -168.5v171q96 30 151 74t73 118q-24 -4 -53 -4q-89 0 -146.5 58.5t-57.5 146.5z" />
<glyph unicode="-" horiz-adv-x="915" d="M120 503v326h675v-326h-675z" />
<glyph unicode="." horiz-adv-x="648" d="M85 214q0 100 70 171t169 71q101 0 170 -71t69 -171q0 -97 -69.5 -167t-169.5 -70q-98 0 -168.5 70t-70.5 167z" />
<glyph unicode="/" horiz-adv-x="1191" d="M58 -10l732 1679h346l-732 -1679h-346z" />
<glyph unicode="0" horiz-adv-x="1570" d="M87 798q0 128 27.5 249t85.5 227t139.5 185.5t197 125.5t251.5 46t251 -45t195.5 -123t137.5 -183t84 -224.5t27 -248.5q0 -130 -27 -250.5t-84 -226.5t-138.5 -184.5t-197.5 -124t-254 -45.5q-137 0 -252.5 44.5t-196 121.5t-137 181.5t-83 224t-26.5 250.5zM495 800 q0 -58 8 -116t29 -119.5t53 -108.5t83.5 -77t116.5 -30q80 0 139.5 44.5t90.5 115.5t45.5 144t14.5 147q0 59 -7.5 117.5t-28 121.5t-52 110t-84 78t-118.5 31t-118 -30.5t-83.5 -78t-52 -110.5t-28.5 -121.5t-8 -117.5z" />
<glyph unicode="1" horiz-adv-x="1050" d="M-4 1284l559 320h330v-1604h-403v1123l-304 -170z" />
<glyph unicode="2" horiz-adv-x="1425" d="M90 0v77q0 211 95 368.5t328 289.5l196 111q117 66 160.5 128t43.5 126q0 66 -54 119t-149 53q-29 0 -57 -5.5t-63 -23.5t-60.5 -47t-41.5 -81.5t-13 -121.5l-375 44q-3 149 48 265.5t138.5 186.5t195 105.5t227.5 35.5q138 0 253 -40.5t191 -111t118 -165t42 -201.5 q0 -321 -369 -524l-178 -98q-50 -27 -87 -53t-54.5 -42.5t-28 -29.5t-12.5 -19l-1 -6h738v-340h-1231z" />
<glyph unicode="3" horiz-adv-x="1425" d="M67 513l375 60q5 -112 75 -183.5t182 -71.5q106 0 168 62t62 145q0 37 -12.5 72t-37.5 66t-70 50t-104 19q-69 2 -141 -43l-178 261l403 315h-665v339h1163v-320l-356 -279q177 -34 289 -171.5t112 -308.5q0 -128 -51.5 -233t-143.5 -178q-86 -67 -199 -102.5t-234 -35.5 q-149 0 -268.5 45t-195.5 122t-119.5 171t-53.5 199z" />
<glyph unicode="4" horiz-adv-x="1549" d="M55 298v400l709 906h469v-966h239v-340h-239v-298h-399v298h-779zM416 638h418v534z" />
<glyph unicode="5" horiz-adv-x="1399" d="M65 480l367 58q6 -58 30 -101t53.5 -65t66.5 -35.5t59.5 -16.5t41.5 -3q105 0 167.5 60t62.5 158q0 91 -64 149t-163 58q-53 0 -109.5 -23t-96.5 -71l-10 -12l-345 151l167 817h958v-339h-671l-63 -299q113 88 302 88q120 0 224 -49.5t171 -138.5q99 -129 99 -326 q0 -133 -54 -242.5t-144 -179t-202 -107.5t-233 -38q-117 0 -217.5 31t-169.5 82t-119.5 118t-76 136.5t-31.5 139.5z" />
<glyph unicode="6" horiz-adv-x="1456" d="M87 728q0 201 66 381.5t193 304.5q219 216 549 216q129 0 243 -30t190 -75l-152 -316q-125 70 -289 70q-155 0 -270 -110.5t-140 -274.5h3q57 65 135.5 104.5t139 51t120.5 11.5q101 0 191 -37.5t157 -103.5t106.5 -161.5t39.5 -206.5q0 -135 -51.5 -246t-138.5 -182.5 t-199.5 -110.5t-238.5 -39q-290 0 -457 174q-61 64 -103 144.5t-61 162t-26 145.5t-7 128zM502 527q0 -91 68.5 -151.5t167.5 -60.5q100 0 167.5 58.5t67.5 153.5q0 90 -65 150.5t-170 60.5q-97 0 -166.5 -63t-69.5 -148z" />
<glyph unicode="7" horiz-adv-x="1325" d="M57 1255v349h1218v-334l-683 -1270h-445l689 1255h-779z" />
<glyph unicode="8" horiz-adv-x="1416" d="M90 450q0 120 74 219.5t200 152.5v2q-118 46 -178.5 139t-60.5 201q0 110 51 200.5t135 147.5t186.5 87.5t210.5 30.5q83 0 166 -19t158 -58.5t133 -93.5t92 -130.5t34 -163.5q0 -108 -60.5 -201.5t-178.5 -139.5v-2q126 -53 200 -153t74 -219q0 -94 -36 -173.5 t-96.5 -134t-141 -92.5t-167.5 -56t-177 -18q-87 0 -173 17.5t-167 55.5t-142.5 92t-98.5 134t-37 175zM489 496q0 -77 61 -129t158 -52t158 52t61 129t-61 129t-158 52t-158 -52t-61 -129zM522 1129q0 -68 54.5 -116t131.5 -48t131.5 48t54.5 116q0 67 -54.5 115t-131.5 48 t-131.5 -47.5t-54.5 -115.5z" />
<glyph unicode="9" horiz-adv-x="1449" d="M88 1050q0 111 33 205.5t91 162.5t137 116.5t171 72t192 23.5q279 0 452 -180q195 -204 195 -578q0 -459 -236 -691q-212 -207 -537 -207q-129 0 -256 33t-204 78l135 313q132 -73 315 -73q155 0 271 109t134 280h-3q-83 -94 -192.5 -132.5t-206.5 -38.5 q-96 0 -185.5 37.5t-157 102.5t-108 161t-40.5 206zM473 1076q0 -89 65 -148.5t170 -59.5q97 0 165.5 62.5t68.5 147.5q0 91 -67 151t-166 60q-100 0 -168 -59t-68 -154z" />
<glyph unicode=":" horiz-adv-x="686" d="M104 214q0 100 70 170.5t169 70.5q100 0 169.5 -70.5t69.5 -170.5q0 -98 -70 -167.5t-169 -69.5q-98 0 -168.5 70t-70.5 167zM104 877q0 100 70 171t169 71q100 0 169.5 -71t69.5 -171q0 -97 -70 -167t-169 -70q-98 0 -168.5 70t-70.5 167z" />
<glyph unicode=";" horiz-adv-x="695" d="M107 183q0 92 68 155t164 63q62 0 111 -24.5t77.5 -65.5t43 -91.5t14.5 -106.5q0 -189 -119 -325.5t-326 -168.5v171q97 30 152 74t73 118q-26 -4 -54 -4q-89 0 -146.5 58.5t-57.5 146.5zM108 877q0 100 70 171t169 71q101 0 170 -71t69 -171q0 -97 -69.5 -167 t-169.5 -70q-98 0 -168.5 70t-70.5 167z" />
<glyph unicode="&#x3c;" horiz-adv-x="1299" d="M71 612v274l1085 486v-343l-696 -277l696 -281v-344z" />
<glyph unicode="=" horiz-adv-x="1294" d="M126 327v320h1042v-320h-1042zM126 850v322h1042v-322h-1042z" />
<glyph unicode="&#x3e;" horiz-adv-x="1299" d="M143 127v343l697 279l-697 279v344l1085 -486v-274z" />
<glyph unicode="?" horiz-adv-x="1241" d="M65 1132q-4 115 40.5 210.5t123 157.5t180.5 96t214 34q105 0 200.5 -30.5t170 -87.5t118.5 -146t44 -198q0 -41 -8 -79.5t-18 -67.5t-33 -64t-37.5 -55t-48.5 -55t-50 -50t-56 -53q-55 -51 -80.5 -90t-31.5 -100l-2 -19h-360q-8 48 -8 71q0 66 34.5 129.5t83.5 113.5 t98 97.5t83.5 100t34.5 102.5q0 58 -43 96t-102 38q-89 0 -133.5 -62.5t-44.5 -158.5l-368 44zM385 198q0 93 65.5 158.5t157.5 65.5q93 0 158.5 -65.5t65.5 -158.5q0 -92 -65.5 -157.5t-158.5 -65.5q-92 0 -157.5 65.5t-65.5 157.5z" />
<glyph unicode="@" horiz-adv-x="1773" d="M91 631q0 172 67.5 328.5t181.5 269t269.5 178.5t325.5 66q214 0 389.5 -90t277 -252t101.5 -363q0 -119 -35.5 -221.5t-95 -171t-137.5 -107.5t-163 -39q-73 0 -139 32.5t-93 83.5q-38 -52 -108.5 -85t-134.5 -33q-71 0 -135 31.5t-107 81.5t-68 113t-25 126 q0 192 121 332.5t300 140.5q58 0 113.5 -28.5t76.5 -77.5l18 97h242l-87 -515q-2 -9 -2.5 -22t2.5 -35t18.5 -37t43.5 -15q84 0 159 100t75 247q0 154 -76 280t-215 199.5t-314 73.5q-182 0 -340 -92.5t-251.5 -251t-93.5 -343.5q0 -134 46 -253t130 -209t212.5 -143 t283.5 -53q105 0 222.5 38t207.5 105l84 -128q-84 -76 -233 -124.5t-281 -48.5q-181 0 -337.5 63.5t-264.5 173t-169.5 259.5t-61.5 319zM716 601q2 -57 38.5 -101t95.5 -44q75 0 131 68t56 154q0 62 -36 100.5t-96 38.5q-79 0 -135 -66t-54 -150z" />
<glyph unicode="A" horiz-adv-x="1655" d="M-16 0l616 1604h455l616 -1604h-428l-110 295h-619l-106 -295h-424zM632 637h385l-194 512z" />
<glyph unicode="B" horiz-adv-x="1516" d="M165 0v1604h695q118 0 226 -38t179 -111q51 -53 79 -124.5t28 -150.5q0 -119 -68 -207t-187 -138v-6q151 -24 237.5 -127t86.5 -249q0 -92 -31 -168t-84.5 -128t-126.5 -88t-155.5 -52.5t-173.5 -16.5h-705zM558 348h298q80 0 131.5 39t51.5 112q0 74 -53 112.5 t-131 38.5h-297v-302zM558 968h232q87 0 134 39.5t47 107.5q0 72 -49 107.5t-136 35.5h-228v-290z" />
<glyph unicode="C" horiz-adv-x="1727" d="M76 802q0 169 62.5 321t172 264t266.5 178t337 66q139 0 259 -38t202 -96.5t146.5 -135.5t99.5 -148t54 -142l-377 -117q-8 33 -25.5 69t-50 78t-74.5 74.5t-105 54t-135 21.5q-180 0 -299 -129.5t-119 -316.5q0 -185 116.5 -315.5t301.5 -130.5q88 0 161 29.5 t119.5 76.5t75 95t41.5 96l380 -119q-15 -65 -50 -135.5t-101 -148t-151.5 -138t-210.5 -100t-269 -39.5q-171 0 -324 63.5t-263.5 173t-175 263t-64.5 326.5z" />
<glyph unicode="D" horiz-adv-x="1674" d="M165 0v1604h532q151 0 285 -31t246.5 -96t193.5 -158.5t126.5 -224t45.5 -287.5q0 -193 -70 -348t-192.5 -254.5t-284 -152t-349.5 -52.5h-533zM570 374h128q102 0 189 27.5t152.5 80.5t102.5 136t37 187q0 135 -66 234t-172.5 146.5t-240.5 47.5h-130v-859z" />
<glyph unicode="E" horiz-adv-x="1401" d="M165 0v1604h1121v-359h-720v-262h655v-346h-655v-276h726v-361h-1127z" />
<glyph unicode="F" horiz-adv-x="1365" d="M165 0v1604h1115v-368h-712v-290h645v-354h-645v-592h-403z" />
<glyph unicode="G" horiz-adv-x="1748" d="M76 802q0 166 66 318.5t178 264.5t268 179t327 67q130 0 243 -32t192.5 -82.5t142.5 -118.5t100 -135t56 -136l-392 -105q-9 37 -32 75.5t-63 78t-105.5 64.5t-145.5 25q-182 0 -305 -129t-123 -330q0 -197 121 -332t312 -135q120 0 219.5 60.5t122.5 153.5h-461v324h883 v-157q0 -154 -55 -290.5t-153 -237t-242 -158.5t-314 -58q-237 0 -429 106.5t-301.5 296t-109.5 423.5z" />
<glyph unicode="H" horiz-adv-x="1733" d="M165 0v1604h404v-606h595v606h404v-1604h-404v625h-595v-625h-404z" />
<glyph unicode="I" horiz-adv-x="736" d="M165 0v1604h406v-1604h-406z" />
<glyph unicode="J" horiz-adv-x="1338" d="M53 526v176h389v-164q0 -91 48.5 -137.5t123.5 -46.5q74 0 119 49.5t45 129.5v1071h408v-1068q0 -257 -158 -408t-404 -151q-167 0 -295.5 64t-202 189.5t-73.5 295.5z" />
<glyph unicode="K" horiz-adv-x="1564" d="M165 0v1604h407v-688l495 688h476l-551 -762l589 -842h-502l-507 759v-759h-407z" />
<glyph unicode="L" horiz-adv-x="1272" d="M165 0v1604h404v-1236h674v-368h-1078z" />
<glyph unicode="M" horiz-adv-x="2156" d="M165 0v1604h519l394 -984l377 984h536l1 -1604h-397v1020h-3l-391 -1020h-249l-395 1008h-4v-1008h-388z" />
<glyph unicode="N" horiz-adv-x="1770" d="M165 0v1604h454l583 -938h2v938h401v-1604h-445l-591 951h-2v-951h-402z" />
<glyph unicode="O" horiz-adv-x="1827" d="M75 802q0 228 113.5 419t307 300.5t421.5 109.5t419.5 -108t303 -297.5t111.5 -417.5q0 -172 -66.5 -326.5t-178.5 -265t-267 -175.5t-326 -65q-229 0 -421 108.5t-304.5 298.5t-112.5 419zM488 805q0 -182 123 -316t303 -134t302.5 134t122.5 316q0 118 -54.5 221 t-153 165t-217.5 62t-218 -62.5t-153.5 -165t-54.5 -220.5z" />
<glyph unicode="P" horiz-adv-x="1444" d="M165 0v1604h628q130 0 238 -32t189.5 -95t127 -163.5t45.5 -230.5q0 -133 -48.5 -236t-134.5 -166.5t-197.5 -95.5t-243.5 -32h-200v-553h-404zM569 898h193q110 0 168 43t58 125q0 86 -54.5 135t-173.5 49h-191v-352z" />
<glyph unicode="Q" horiz-adv-x="1830" d="M75 802q0 228 113.5 419t307 300.5t421.5 109.5t419.5 -108t303 -297.5t111.5 -417.5q0 -249 -137 -458l161 -141l-220 -251l-175 158q-211 -140 -467 -140q-229 0 -421 108.5t-304.5 298.5t-112.5 419zM488 805q0 -118 54.5 -221.5t153.5 -167t218 -63.5q85 0 164 33 l-219 193l220 252l228 -206q34 87 34 181q0 118 -55 220.5t-154 164.5t-218 62t-218 -62.5t-153.5 -165t-54.5 -220.5z" />
<glyph unicode="R" horiz-adv-x="1520" d="M165 0v1604h658q274 0 437 -131.5t163 -384.5q0 -171 -78 -285t-217 -171l332 -632h-430l-295 564h-166v-564h-404zM569 908h223q110 0 168 42.5t58 122.5q0 82 -55 132t-173 50h-221v-347z" />
<glyph unicode="S" horiz-adv-x="1422" d="M60 491l362 86q12 -91 60 -151.5t111 -84.5t140 -24q99 0 148.5 47t49.5 106q0 101 -137 128l-221 43q-205 40 -328 163t-123 309q0 111 48.5 208.5t129 165t188 106t224.5 38.5q116 0 213.5 -28t163 -74t114 -107.5t73.5 -124t34 -129.5l-355 -100q-15 102 -77.5 163 t-167.5 61q-87 0 -136.5 -46.5t-49.5 -101.5q0 -109 119 -132l230 -44q223 -43 344.5 -171t121.5 -310q0 -98 -42 -189.5t-117.5 -163t-192.5 -114.5t-256 -43q-291 0 -460 138.5t-211 375.5z" />
<glyph unicode="T" horiz-adv-x="1385" d="M37 1236v368h1311v-368h-453v-1236h-404v1236h-454z" />
<glyph unicode="U" horiz-adv-x="1636" d="M149 633v971h408v-964q0 -128 65.5 -207t195.5 -79q73 0 125.5 23.5t81 64.5t41.5 87.5t13 101.5v973h408v-965q0 -313 -169.5 -487.5t-503.5 -174.5q-171 0 -300.5 48.5t-208 137.5t-117.5 206.5t-39 263.5z" />
<glyph unicode="V" horiz-adv-x="1617" d="M19 1604h446l349 -1061l350 1061h436l-579 -1604h-426z" />
<glyph unicode="W" horiz-adv-x="2452" d="M25 1604h421l271 -1014h6l309 1014h389l317 -1017h5l276 1017h410l-474 -1604h-406l-322 1085h-3l-328 -1085h-401z" />
<glyph unicode="X" horiz-adv-x="1571" d="M-11 0l560 821l-531 783h465l309 -473l306 473h454l-526 -781l555 -823h-465l-332 509l-336 -509h-459z" />
<glyph unicode="Y" horiz-adv-x="1572" d="M12 1604h456l322 -575l326 575h446l-573 -985v-619h-406v618z" />
<glyph unicode="Z" horiz-adv-x="1438" d="M80 0v342l739 905h-704v357h1226v-339l-742 -905h744v-360h-1263z" />
<glyph unicode="[" horiz-adv-x="937" d="M168 -265v2041h703v-279h-381v-1483h381v-279h-703z" />
<glyph unicode="\" horiz-adv-x="1190" d="M54 1669h347l731 -1679h-345z" />
<glyph unicode="]" horiz-adv-x="937" d="M66 14h381v1483h-381v279h703v-2041h-703v279z" />
<glyph unicode="^" horiz-adv-x="1343" d="M71 923l442 681h319l440 -681h-357l-243 405l-240 -405h-361z" />
<glyph unicode="_" horiz-adv-x="1193" d="M0 -102h1193v-289h-1193v289z" />
<glyph unicode="`" horiz-adv-x="695" d="M26 1677h414l228 -402h-293z" />
<glyph unicode="a" horiz-adv-x="1227" d="M71 302q0 76 32 137t83 99t120.5 63t139 35t143.5 10h58q37 0 58 17.5t21 49.5q0 45 -38 76.5t-108 31.5q-61 0 -106 -33t-57 -87l-325 71q16 89 67 158.5t123 109t151 59.5t161 20q147 0 261.5 -48.5t184.5 -152t70 -250.5v-492q0 -100 9 -176h-370q-10 51 -10 127l-4 3 q-130 -151 -331 -151q-139 0 -236 92.5t-97 230.5zM460 341q0 -38 29.5 -65t69.5 -27q73 0 119.5 41.5t46.5 113.5v33h-135q-51 0 -90.5 -24t-39.5 -72z" />
<glyph unicode="b" d="M128 0v1669h390v-706h4q56 73 139 112.5t175 39.5q147 0 265.5 -79.5t182.5 -208.5t64 -280q0 -108 -37.5 -210t-103.5 -182t-165 -128.5t-213 -48.5q-189 0 -307 153h-8v-131h-386zM514 549q0 -91 64 -157t154 -66t154 66t64 157q0 90 -64 155.5t-154 65.5t-154 -65.5 t-64 -155.5z" />
<glyph unicode="c" horiz-adv-x="1257" d="M68 547q0 121 49.5 228t131.5 182t192.5 118.5t229.5 43.5q123 0 232 -43t190 -131t108 -207l-344 -105q-21 63 -71.5 99t-116.5 36q-89 0 -148 -63.5t-59 -154.5q0 -93 56.5 -157t151.5 -64q64 0 116 37t77 98l344 -103q-34 -122 -114.5 -210t-189.5 -131.5t-236 -43.5 q-165 0 -301.5 71t-217 202.5t-80.5 297.5z" />
<glyph unicode="d" d="M70 549q0 122 43 228.5t115 180t166.5 115.5t195.5 42q27 0 56 -4.5t74 -17t90.5 -44.5t82.5 -80h8v700h389v-1669h-386v134h-8q-122 -156 -315 -156q-144 0 -262 77.5t-183.5 208t-65.5 285.5zM468 549q0 -91 64 -156.5t154 -65.5t154 65.5t64 156.5t-64 156t-154 65 t-154 -65t-64 -156z" />
<glyph unicode="e" horiz-adv-x="1278" d="M68 549q0 158 79.5 289t213.5 205.5t291 74.5q155 0 283 -72t202 -199.5t74 -282.5q0 -69 -6 -115h-758q15 -79 77.5 -124.5t144.5 -45.5q60 0 110 29.5t82 81.5l320 -113q-70 -154 -206 -227.5t-314 -73.5q-161 0 -296.5 73.5t-216 205.5t-80.5 294zM452 665h380 q-10 73 -61 114.5t-126 41.5q-68 0 -123 -45t-70 -111z" />
<glyph unicode="f" horiz-adv-x="938" d="M52 775v318h201v92q0 106 28.5 194t84.5 154.5t146.5 103.5t206.5 37q115 0 196 -28v-302q-50 12 -111 12q-88 0 -126 -44.5t-38 -131.5v-87h265v-318h-265v-775h-387v775h-201z" />
<glyph unicode="g" horiz-adv-x="1409" d="M71 -154l344 104q16 -73 75.5 -118t143.5 -45q120 0 188.5 60.5t68.5 186.5v130h-6q-122 -156 -302 -156q-226 0 -368.5 156t-142.5 392q0 122 42 226.5t112.5 175t163.5 110.5t195 40q79 0 160.5 -34t143.5 -113h6v132h386v-1038q0 -280 -174 -441t-458 -161 q-126 0 -232.5 35t-176.5 92.5t-113 125.5t-56 140zM470 557q0 -91 61 -152.5t152 -61.5q90 0 151 63t61 153t-61 150.5t-151 60.5q-91 0 -152 -61.5t-61 -151.5z" />
<glyph unicode="h" horiz-adv-x="1332" d="M128 0v1669h390v-703h2q60 75 143.5 112.5t168.5 37.5q83 0 150 -27t109.5 -71.5t71 -104.5t40.5 -122t12 -129v-662h-389v594q0 70 -40.5 118t-109.5 48q-72 0 -115.5 -44t-43.5 -123v-593h-389z" />
<glyph unicode="i" horiz-adv-x="648" d="M97 1464q0 95 66.5 161.5t160.5 66.5q95 0 161 -67t66 -161q0 -92 -66 -158t-161 -66q-93 0 -160 66t-67 158zM128 0v1093h392v-1093h-392z" />
<glyph unicode="j" horiz-adv-x="664" d="M-102 -203v-306q18 -9 78 -20t128 -11q211 0 321.5 122.5t110.5 321.5v1189h-392v-1178q0 -129 -151 -129q-48 0 -95 11zM115 1464q0 95 66.5 161.5t160.5 66.5q95 0 161 -67t66 -161q0 -92 -66 -158t-161 -66q-93 0 -160 66t-67 158z" />
<glyph unicode="k" horiz-adv-x="1310" d="M128 0v1669h389v-1029l329 453h450l-368 -508l381 -585h-456l-328 532h-8v-532h-389z" />
<glyph unicode="l" horiz-adv-x="649" d="M128 0v1669h393v-1669h-393z" />
<glyph unicode="m" horiz-adv-x="2009" d="M128 0v1093h387v-136h2q59 80 143 119.5t170 39.5q214 0 311 -171q155 171 370 171q86 0 153.5 -27t109.5 -71t69 -105t38 -122t11 -129v-662h-389v598q0 68 -37 115t-105 47q-75 0 -116 -42.5t-41 -121.5v-596h-388v596q0 68 -37 116t-105 48q-75 0 -116 -43.5 t-41 -122.5v-594h-389z" />
<glyph unicode="n" horiz-adv-x="1332" d="M128 0v1093h387v-136h3q59 80 144 119.5t170 39.5q83 0 150 -27t109.5 -71.5t71 -104.5t40.5 -122t12 -129v-662h-389v592q0 71 -40.5 119.5t-109.5 48.5q-72 0 -115.5 -44.5t-43.5 -123.5v-592h-389z" />
<glyph unicode="o" horiz-adv-x="1342" d="M68 546q0 121 50 228.5t133.5 182.5t194 118t229.5 43t228.5 -42t191.5 -115t130.5 -179t48.5 -227q0 -123 -49 -232t-131.5 -184.5t-193.5 -119.5t-233 -44q-121 0 -231 42.5t-191 117t-129 181.5t-48 230zM459 549q0 -90 62 -156.5t151 -66.5t150 66.5t61 156.5 t-61 155.5t-151 65.5t-151 -65.5t-61 -155.5z" />
<glyph unicode="p" d="M128 -540v1633h386v-131h8q54 72 138.5 112.5t175.5 40.5q147 0 265.5 -79.5t182.5 -208.5t64 -280q0 -108 -37.5 -210t-103.5 -182t-165 -128.5t-213 -48.5q-190 0 -304 151h-7v-669h-390zM514 549q0 -91 64 -157t154 -66t154 66t64 157q0 90 -64 155.5t-154 65.5 t-154 -65.5t-64 -155.5z" />
<glyph unicode="q" d="M70 549q0 122 43 228.5t115 180t166.5 115.5t195.5 42q27 0 56 -4.5t73.5 -17.5t91.5 -45t85 -80h8v125h386v-1633h-389v672h-7q-118 -154 -313 -154q-144 0 -262 77.5t-183.5 208t-65.5 285.5zM468 549q0 -91 64 -156.5t154 -65.5t154 65.5t64 156.5t-64 156t-154 65 t-154 -65t-64 -156z" />
<glyph unicode="r" horiz-adv-x="936" d="M128 0v1093h386v-158h3q31 52 74 88.5t88.5 52t79 21.5t64.5 6q34 0 72 -7l-1 -377q-48 9 -95 9q-281 0 -281 -278v-450h-390z" />
<glyph unicode="s" horiz-adv-x="1092" d="M62 311l315 61q6 -56 49 -88t107 -32q60 0 86.5 25t26.5 51q0 52 -99 71l-119 24q-68 14 -125 37.5t-106 61.5t-77 95.5t-28 130.5q0 156 131 263.5t319 107.5q112 0 202 -29.5t142.5 -77t81 -99.5t31.5 -104l-316 -59q-9 53 -46 74.5t-83 21.5q-50 0 -74.5 -22.5 t-24.5 -46.5q0 -46 62 -58l155 -32q70 -14 129 -40t110 -65.5t80 -99t29 -132.5q0 -72 -31 -139t-88 -120t-148 -84.5t-202 -31.5q-107 0 -193.5 24t-138.5 59.5t-87.5 83t-50.5 88.5t-19 81z" />
<glyph unicode="t" horiz-adv-x="967" d="M36 771v322h215v355h380v-355h253v-322h-253v-335q0 -127 141 -127q26 0 102 6v-302q-85 -31 -207 -31q-193 0 -309.5 107.5t-116.5 305.5v376h-205z" />
<glyph unicode="u" horiz-adv-x="1332" d="M117 431v662h389v-592q0 -71 40.5 -119.5t109.5 -48.5q72 0 115.5 44.5t43.5 123.5v592h389v-1093h-387v136h-3q-59 -80 -143.5 -119t-170.5 -39q-82 0 -148.5 27t-109.5 71.5t-72 104t-41 122t-12 128.5z" />
<glyph unicode="v" horiz-adv-x="1298" d="M16 1093h409l227 -630h1l225 630h404l-440 -1093h-387z" />
<glyph unicode="w" horiz-adv-x="1865" d="M25 1093h387l169 -587h2l192 587h316l197 -591h2l181 591h373l-353 -1093h-370l-188 586h-3l-192 -586h-367z" />
<glyph unicode="x" horiz-adv-x="1290" d="M8 0l410 553l-403 540h435l200 -285l197 285h429l-405 -542l411 -551h-438l-201 294l-203 -294h-432z" />
<glyph unicode="y" horiz-adv-x="1317" d="M7 1093h427l251 -559h2l207 559h410l-667 -1632h-414l261 645z" />
<glyph unicode="z" horiz-adv-x="1148" d="M85 0v308l458 465h-440v320h952v-288l-479 -486h484v-319h-975z" />
<glyph unicode="{" horiz-adv-x="959" d="M46 604v308q122 1 172.5 36t39.5 138l-21 204q-14 141 9.5 236t88.5 149.5t158.5 77.5t231.5 23h167v-279h-135q-100 0 -144 -29.5t-49 -95t7 -168.5l16 -153q26 -244 -246 -289v-8q144 -21 201 -98t45 -191l-16 -153q-12 -104 -7 -170.5t49 -97.5t144 -31h135v-278h-167 q-137 0 -231 23.5t-159 79t-88.5 151.5t-9.5 237l21 203q11 103 -39.5 138.5t-172.5 36.5z" />
<glyph unicode="|" horiz-adv-x="654" d="M168 -238v2063h318v-2063h-318z" />
<glyph unicode="}" horiz-adv-x="959" d="M67 13h135q100 0 144 31t49 97.5t-7 170.5l-16 153q-12 114 45 191t201 98v8q-272 45 -246 289l16 153q12 103 7 168.5t-49 95t-144 29.5h-135v279h167q138 0 231.5 -23t158.5 -77.5t88.5 -149.5t9.5 -236l-21 -204q-11 -103 39.5 -138t172.5 -36v-308 q-122 -1 -172.5 -36.5t-39.5 -138.5l21 -203q14 -141 -9.5 -237t-88.5 -151.5t-159 -79t-231 -23.5h-167v278z" />
<glyph unicode="~" horiz-adv-x="1358" d="M77 643q72 127 162 200.5t217 73.5q64 0 132 -25.5t115 -55.5t95 -55.5t77 -25.5q92 0 170 121l233 -188q-47 -82 -96 -138.5t-123 -95.5t-162 -39q-60 0 -125 25t-111 55.5t-97 55.5t-86 25q-91 0 -171 -125z" />
<glyph unicode="&#xa2;" horiz-adv-x="1297" d="M82 547q0 110 41 209t111 171.5t164.5 120.5t200.5 62v194h147v-191q106 -11 200.5 -54t169 -125t100.5 -188l-341 -108q-36 104 -133 128v-435q95 23 140 129l341 -108q-32 -108 -106.5 -189.5t-168.5 -124.5t-202 -54v-193h-147v195q-224 25 -370.5 178.5t-146.5 382.5 zM474 550q0 -74 33 -131t96 -80v418q-61 -24 -95 -80t-34 -127z" />
<glyph unicode="&#xa3;" horiz-adv-x="1456" d="M106 0v306q95 43 170 126.5t75 181.5q0 28 -4 51h-231v261h153q-35 110 -35 200q0 147 74.5 263t199 178.5t273.5 62.5q135 0 242 -43.5t170.5 -115t96.5 -155.5t35 -174l-380 -60q-1 96 -46.5 151t-122.5 55q-67 0 -114 -46.5t-47 -118.5q0 -52 49 -197h382v-261h-315 v-18q0 -88 -42.5 -168.5t-117.5 -130.5h262q86 0 143 55t57 145l351 -22q0 -228 -138 -377t-358 -149h-782z" />
<glyph unicode="&#xa5;" horiz-adv-x="1620" d="M63 1604h466l286 -515l287 515h453l-447 -712h346v-235h-441v-124h441v-234h-441v-299h-406v299h-438v234h438v124h-438v235h341z" />
<glyph unicode="&#xa8;" horiz-adv-x="1032" d="M40 1466q0 87 58 145.5t145 58.5t145.5 -58.5t58.5 -145.5q0 -88 -58 -146t-146 -58t-145.5 58t-57.5 146zM573 1466q0 87 57.5 145.5t144.5 58.5t146 -58.5t59 -145.5q0 -88 -58.5 -146t-146.5 -58t-145 58t-57 146z" />
<glyph unicode="&#xa9;" horiz-adv-x="1810" d="M81 804q0 168 66 321t177 263.5t263 176t318 65.5q168 0 320.5 -65t263 -175t175.5 -262.5t65 -320.5t-66 -321.5t-177 -264t-263 -176.5t-318 -66t-318 64t-263 173.5t-177 263t-66 324.5zM230 807q0 -139 54 -266.5t145 -220t215.5 -147.5t259.5 -55q136 0 260 53 t215 144t145 218.5t54 270.5q0 186 -89.5 344t-245 250.5t-339.5 92.5q-138 0 -263 -54t-215 -145.5t-143 -218.5t-53 -266zM390 808q0 143 74 259t196 179.5t264 63.5q167 0 300.5 -90t168.5 -247l-304 -92q-19 55 -63 87t-102 32q-79 0 -132 -57t-53 -137t53.5 -137.5 t132.5 -57.5q57 0 102 32.5t67 87.5l305 -92q-45 -162 -174.5 -251.5t-301.5 -89.5q-146 0 -267.5 64t-193.5 181.5t-72 264.5z" />
<glyph unicode="&#xab;" horiz-adv-x="1424" d="M51 617l478 472l197 -191l-288 -279l288 -284l-197 -190zM657 617l478 472l196 -191l-287 -279l287 -284l-196 -190z" />
<glyph unicode="&#xad;" horiz-adv-x="915" d="M120 503v326h675v-326h-675z" />
<glyph unicode="&#xae;" horiz-adv-x="1312" d="M94 1069q0 153 75 282.5t204.5 205t282.5 75.5t282.5 -75.5t204.5 -205t75 -282.5t-75 -282t-204.5 -204.5t-282.5 -75.5t-282.5 75.5t-204.5 204.5t-75 282zM218 1071q0 -184 128 -314t309 -130t309 130t128 314t-128 314t-309 130t-309 -130t-128 -314zM425 747v645 h265q110 0 175.5 -53t65.5 -154q0 -135 -119 -184l129 -254h-173l-114 227h-66v-227h-163zM588 1112h89q91 0 91 67q0 33 -22 53t-69 20h-89v-140z" />
<glyph unicode="&#xb4;" horiz-adv-x="700" d="M36 1275l228 402h414l-349 -402h-293z" />
<glyph unicode="&#xbb;" horiz-adv-x="1424" d="M93 335l288 282l-288 281l197 191l478 -472l-478 -472zM699 335l287 282l-287 281l196 191l478 -472l-478 -472z" />
<glyph unicode="&#x106;" horiz-adv-x="1728" d="M76 802q0 169 63 321t172.5 264t266.5 178t337 66q139 0 259 -38t202 -96.5t146.5 -135.5t99.5 -148t54 -142l-377 -117q-8 33 -25.5 69t-50 78t-74.5 74.5t-105 54t-135 21.5q-180 0 -299 -129.5t-119 -316.5q0 -185 116.5 -315.5t301.5 -130.5q88 0 161 29.5 t119.5 76.5t75 95t41.5 96l380 -119q-15 -65 -50 -135.5t-101 -148t-151.5 -138t-210.5 -100t-269 -39.5q-171 0 -324 63.5t-264 172.5t-175.5 263t-64.5 327zM760 1745l228 402h414l-349 -402h-293z" />
<glyph unicode="&#x107;" horiz-adv-x="1258" d="M68 547q0 121 49.5 228t132 182t193 118.5t229.5 43.5q123 0 232 -43t190 -131t108 -207l-344 -105q-21 63 -71.5 99t-116.5 36q-89 0 -148 -63.5t-59 -154.5q0 -93 56.5 -157t151.5 -64q64 0 116 37t77 98l344 -103q-34 -122 -114.5 -210t-189.5 -131.5t-236 -43.5 q-165 0 -301.5 71t-217.5 202.5t-81 297.5zM524 1275l228 402h414l-349 -402h-293z" />
<glyph unicode="&#x10c;" horiz-adv-x="1734" d="M76 802q0 -173 65.5 -327t177 -263t265.5 -172.5t326 -63.5q144 0 269 39.5t210.5 100t151.5 138t101 148t50 135.5l-380 119q-13 -48 -41.5 -96t-75 -95t-119.5 -76.5t-161 -29.5q-185 0 -301.5 130.5t-116.5 315.5q0 187 119 316.5t299 129.5q72 0 135 -21.5t105 -54 t74.5 -74.5t50 -78t25.5 -69l377 117q-19 71 -54 142t-99.5 148t-146.5 135.5t-202 96.5t-259 38q-181 0 -339 -66t-268.5 -177.5t-174 -264t-63.5 -321.5zM487 2136h312l126 -207l124 207h313l-257 -387h-360z" />
<glyph unicode="&#x10d;" horiz-adv-x="1259" d="M68 547q0 -166 81 -297.5t218 -202.5t302 -71q127 0 236 43.5t189.5 131.5t114.5 210l-344 103q-25 -61 -77 -98t-116 -37q-95 0 -151.5 64t-56.5 157q0 91 59 154.5t148 63.5q66 0 116.5 -36t71.5 -99l344 105q-27 119 -108 207t-190 131t-232 43q-119 0 -229.5 -43.5 t-193.5 -118.5t-132.5 -182t-49.5 -228zM239 1666h311l126 -207l124 207h313l-257 -387h-360z" />
<glyph unicode="&#x110;" horiz-adv-x="1741" d="M44 637v343h188v624h532q193 0 356 -51.5t284 -150t189 -251t68 -344.5q0 -163 -50.5 -298.5t-136 -228t-202 -157t-246 -94t-269.5 -29.5h-525v637h-188zM632 371h140q214 0 344 115.5t130 318.5q0 194 -128.5 311t-343.5 117h-142v-253h290v-343h-290v-266z" />
<glyph unicode="&#x111;" d="M70 549q0 122 43 228.5t114.5 180t166 115.5t196.5 42q27 0 56 -4.5t73.5 -17t90 -44.5t82.5 -80h8v276h-311v260h311v163h390v-163h150v-260h-150v-1245h-386v134h-8q-123 -156 -316 -156q-143 0 -261 77.5t-183.5 208t-65.5 285.5zM467 549q0 -90 64.5 -156t154.5 -66 t154 66t64 156q0 91 -64 156t-154 65q-91 0 -155 -65t-64 -156z" />
<glyph unicode="&#x160;" horiz-adv-x="1423" d="M60 491q41 -237 211 -375.5t461 -138.5q139 0 256 43t192.5 114.5t117.5 163t42 189.5q0 182 -121.5 310t-344.5 171l-230 44q-119 23 -119 132q0 55 49.5 101.5t136.5 46.5q105 0 167.5 -61t77.5 -163l355 100q-9 67 -34 129.5t-73.5 124t-114 107.5t-163 74t-213.5 28 q-156 0 -291 -65t-217.5 -185t-82.5 -268q0 -186 123.5 -309t328.5 -163l221 -43q137 -27 137 -128q0 -59 -49.5 -106t-148.5 -47q-77 0 -140 24t-111 84.5t-60 151.5zM283 2144h311l126 -207l124 207h313l-257 -387h-360z" />
<glyph unicode="&#x161;" horiz-adv-x="1093" d="M62 311l316 61q6 -56 49 -88t107 -32q60 0 86.5 25t26.5 51q0 52 -99 71l-119 24q-68 14 -125 37.5t-106.5 61.5t-77.5 95.5t-28 130.5q0 156 131.5 263.5t319.5 107.5q112 0 202 -29.5t142.5 -77t81 -99.5t31.5 -104l-316 -59q-9 53 -46 74.5t-83 21.5 q-50 0 -74.5 -22.5t-24.5 -46.5q0 -46 62 -58l155 -32q70 -14 129 -40t110 -65.5t80 -99t29 -132.5q0 -72 -31 -139t-88 -120t-148 -84.5t-202 -31.5q-108 0 -194 24t-138 59.5t-88 83t-51 88.5t-19 81zM104 1666h312l126 -207l124 207h313l-257 -387h-360z" />
<glyph unicode="&#x17d;" horiz-adv-x="1439" d="M80 0h1264v360h-744l742 905v339h-1227v-357h705l-740 -905v-342zM275 2134h311l126 -207l124 207h313l-257 -387h-360z" />
<glyph unicode="&#x17e;" horiz-adv-x="1148" d="M85 0h975v319h-484l479 486v288h-952v-320h440l-458 -465v-308zM135 1666h312l126 -207l124 207h313l-257 -387h-360z" />
<glyph unicode="&#x2000;" horiz-adv-x="1073" />
<glyph unicode="&#x2001;" horiz-adv-x="2147" />
<glyph unicode="&#x2002;" horiz-adv-x="1073" />
<glyph unicode="&#x2003;" horiz-adv-x="2147" />
<glyph unicode="&#x2004;" horiz-adv-x="715" />
<glyph unicode="&#x2005;" horiz-adv-x="536" />
<glyph unicode="&#x2006;" horiz-adv-x="357" />
<glyph unicode="&#x2007;" horiz-adv-x="357" />
<glyph unicode="&#x2008;" horiz-adv-x="268" />
<glyph unicode="&#x2009;" horiz-adv-x="429" />
<glyph unicode="&#x200a;" horiz-adv-x="119" />
<glyph unicode="&#x2010;" horiz-adv-x="915" d="M120 503v326h675v-326h-675z" />
<glyph unicode="&#x2011;" horiz-adv-x="915" d="M120 503v326h675v-326h-675z" />
<glyph unicode="&#x2012;" horiz-adv-x="915" d="M120 503v326h675v-326h-675z" />
<glyph unicode="&#x2013;" horiz-adv-x="1253" d="M119 505v322h1015v-322h-1015z" />
<glyph unicode="&#x2014;" horiz-adv-x="2038" d="M119 505v322h1800v-322h-1800z" />
<glyph unicode="&#x2018;" horiz-adv-x="645" d="M78 1125q0 189 119 325.5t326 168.5v-171q-96 -30 -151 -74t-73 -118q24 4 53 4q89 0 146.5 -58.5t57.5 -146.5q0 -92 -68 -155t-163 -63q-62 0 -111 24.5t-78 65.5t-43.5 91.5t-14.5 106.5z" />
<glyph unicode="&#x2019;" horiz-adv-x="652" d="M102 1397q0 92 68 155t163 63q62 0 111 -24.5t78 -65.5t43.5 -91.5t14.5 -106.5q0 -189 -119 -325.5t-326 -168.5v171q96 30 151 74t73 118q-24 -4 -53 -4q-89 0 -146.5 58.5t-57.5 146.5z" />
<glyph unicode="&#x201a;" horiz-adv-x="659" d="M88 183q0 92 68 155t163 63q62 0 111 -24.5t78 -65.5t43.5 -91.5t14.5 -106.5q0 -189 -119 -325.5t-326 -168.5v171q96 30 151 74t73 118q-24 -4 -53 -4q-89 0 -146.5 58.5t-57.5 146.5z" />
<glyph unicode="&#x201c;" horiz-adv-x="1205" d="M78 1125q0 189 119 325.5t326 168.5v-171q-96 -30 -151 -74t-73 -118q24 4 53 4q89 0 146.5 -58.5t57.5 -146.5q0 -92 -68 -155t-163 -63q-62 0 -111 24.5t-78 65.5t-43.5 91.5t-14.5 106.5zM638 1125q0 189 119 325.5t326 168.5v-171q-96 -30 -151 -74t-73 -118 q24 4 53 4q89 0 146.5 -58.5t57.5 -146.5q0 -92 -68 -155t-163 -63q-62 0 -111 24.5t-78 65.5t-43.5 91.5t-14.5 106.5z" />
<glyph unicode="&#x201d;" horiz-adv-x="1212" d="M102 1397q0 92 68 155t163 63q62 0 111 -24.5t78 -65.5t43.5 -91.5t14.5 -106.5q0 -189 -119 -325.5t-326 -168.5v171q96 30 151 74t73 118q-24 -4 -53 -4q-89 0 -146.5 58.5t-57.5 146.5zM662 1397q0 92 68 155t163 63q62 0 111 -24.5t78 -65.5t43.5 -91.5t14.5 -106.5 q0 -189 -119 -325.5t-326 -168.5v171q96 30 151 74t73 118q-24 -4 -53 -4q-89 0 -146.5 58.5t-57.5 146.5z" />
<glyph unicode="&#x201e;" horiz-adv-x="1219" d="M88 183q0 92 68 155t163 63q62 0 111 -24.5t78 -65.5t43.5 -91.5t14.5 -106.5q0 -189 -119 -325.5t-326 -168.5v171q96 30 151 74t73 118q-24 -4 -53 -4q-89 0 -146.5 58.5t-57.5 146.5zM648 183q0 92 68 155t163 63q62 0 111 -24.5t78 -65.5t43.5 -91.5t14.5 -106.5 q0 -189 -119 -325.5t-326 -168.5v171q96 30 151 74t73 118q-24 -4 -53 -4q-89 0 -146.5 58.5t-57.5 146.5z" />
<glyph unicode="&#x2026;" horiz-adv-x="2123" d="M85 214q0 100 70 171t169 71q100 0 169.5 -71t69.5 -171q0 -97 -69.5 -167t-169.5 -70q-98 0 -168.5 70t-70.5 167zM822 214q0 100 70 171t169 71q101 0 170 -71t69 -171q0 -97 -69.5 -167t-169.5 -70q-98 0 -168.5 70t-70.5 167zM1559 214q0 100 70 171t169 71 q101 0 170.5 -71t69.5 -171q0 -97 -70 -167t-170 -70q-98 0 -168.5 70t-70.5 167z" />
<glyph unicode="&#x202f;" horiz-adv-x="429" />
<glyph unicode="&#x2039;" horiz-adv-x="819" d="M51 617l478 472l197 -191l-288 -279l288 -284l-197 -190z" />
<glyph unicode="&#x203a;" horiz-adv-x="819" d="M93 335l288 282l-288 281l197 191l478 -472l-478 -472z" />
<glyph unicode="&#x205f;" horiz-adv-x="536" />
<glyph unicode="&#x20ac;" horiz-adv-x="1915" d="M76 538v217h158q-1 16 -1 47q0 19 2 55h-159v217h201q83 248 296.5 402.5t498.5 154.5q138 0 258 -38t202 -96.5t146.5 -135.5t99.5 -148t54 -142l-377 -117q-8 33 -25.5 69t-50 78t-74.5 74.5t-105 54t-135 21.5q-105 0 -192.5 -47.5t-144.5 -129.5h482l-70 -217h-490 q-3 -25 -3 -52q0 -18 2 -50h465l-69 -217h-320q57 -83 144.5 -131t195.5 -48q88 0 161 29.5t119.5 76.5t75 95t41.5 96l380 -119q-12 -53 -39.5 -111t-71.5 -122.5t-109.5 -122t-145 -104t-187.5 -74t-229 -27.5q-276 0 -490.5 155t-295.5 407h-198z" />
<glyph unicode="&#x2122;" horiz-adv-x="2163" d="M71 1392v212h754v-212h-260v-713h-233v713h-261zM960 679v925h319l207 -567l197 567h329v-925h-228v599h-7l-213 -599h-158l-215 592h-7v-592h-224z" />
<glyph unicode="&#x25fc;" horiz-adv-x="1095" d="M0 0v1095h1095v-1095h-1095z" />
</font>
</defs>
</svg>
